Завантажити та скачати торренти українською


Росава - Просто Неба (2003) [FLAC] | Pop / Rock

Нові коментарі

Нова тема   Відповісти
Останній раз роздавалося YuriiVO (2016-11-07)
Автор Повідомлення
fanDYNAMO 
Частий відвідувач


З нами з: 30.12.12
Востаннє: 03.12.16
Повідомлень: 38

2013-03-14 23:55  
Росава - Просто Неба (2003) [FLAC] | Pop / Rock

Росава - Просто Неба (2003) [FLAC] | Pop / Rock


Стиль: Pop Rock
Країна, місто: Україна, Сквира, Київська область
Сайти: Офіційний сайт
Видавець: Lavina Music
Виконавці:
Роса́ва (справжнє ім'я: Олена Янчук)

Пісні:
    01. Просто неба (01:52)
    02. Обійми (03:38)
    03. Росава (04:46)
    04. Прокидаюсь (05:48)
    05. День & ніч (04:20)
    06. На волю в небеса (04:54)
    07. Ой, де ти (03:58)
    08. Зневірилась (04:26)
    09. Слова (04:02)
    10. Блудна (03:20)
    11. Косиця квітне (03:54)
    12. Обійми (Remix) (04:16)
    13. День & ніч (Remix) (05:12)
    14. Ой, рясна-красна (Колядка) (03:53)
    додаток:
    15. Дівчина така я (03:34)
    16. Отакая дівчина (Beag bit FS rmx) (03:39)
    17. Наша Україна (03:24)

Тривалість: 01:08:59
Мова: українська (01-17)
Аудіо-кодек: FLAC
Бітрейт: ~925 кб/с
Джерело: Власний CD
Лог EAC
Exact Audio Copy V1.0 beta 3 from 29. August 2011

Отчёт EAC об извлечении, выполненном 14. марта 2013, 19:21

Росава / Просто Неба

Дисковод: HL-DT-STDVDRAM GH24NS90 Adapter: 2 ID: 0

Режим чтения : Достоверность
Использование точного потока : Да
Отключение кэша аудио : Да
Использование указателей C2 : Нет

Коррекция смещения при чтении : 6
Способность читать области Lead-in и Lead-out : Нет
Заполнение пропущенных сэмплов тишиной : Да
Удаление блоков с тишиной в начале и конце : Нет
При вычислениях CRC использовались нулевые сэмплы : Да
Интерфейс : Встроенный Win32-интерфейс для Win NT/2000

Выходной формат : Пользовательский кодировщик
Выбранный битрейт : 128 kBit/s
Качество : Высокий
Добавление ID3-тега : Нет
Утилита сжатия : C:\Program Files (x86)\Exact Audio Copy\Flac\flac.exe
Дополнительные параметры : -V -8 -T "Date=%year%" -T "Genre=%genre%" %source%

TOC извлечённого CD

Трек | Старт | Длительность | Начальный сектор | Конечный сектор
---------------------------------------------------------------------
1 | 0:00.00 | 1:52.03 | 0 | 8402
2 | 1:52.03 | 3:38.55 | 8403 | 24807
3 | 5:30.58 | 4:46.04 | 24808 | 46261
4 | 10:16.62 | 5:48.03 | 46262 | 72364
5 | 16:04.65 | 4:20.03 | 72365 | 91867
6 | 20:24.68 | 4:54.03 | 91868 | 113920
7 | 25:18.71 | 3:58.04 | 113921 | 131774
8 | 29:17.00 | 4:26.03 | 131775 | 151727
9 | 33:43.03 | 4:02.03 | 151728 | 169880
10 | 37:45.06 | 3:20.02 | 169881 | 184882
11 | 41:05.08 | 3:54.04 | 184883 | 202436
12 | 44:59.12 | 4:16.04 | 202437 | 221640
13 | 49:15.16 | 5:12.04 | 221641 | 245044
14 | 54:27.20 | 3:53.68 | 245045 | 262587
15 | 58:21.13 | 3:34.05 | 262588 | 278642
16 | 61:55.18 | 3:39.08 | 278643 | 295075
17 | 65:34.26 | 3:24.64 | 295076 | 310439

Характеристики диапазона извлечения и сообщения об ошибках

Выбранный диапазон

Имя файла D:\1\Росава - Просто Неба (2003).wav

Пиковый уровень 100.0 %
Скорость извлечения 7.6 X
Качество диапазона 100.0 %
CRC теста 1F513527
CRC копии 1F513527
Копирование... OK

Ошибок не произошло

AccurateRip: сводка

Трек 1 отсутствует в базе данных
Трек 2 отсутствует в базе данных
Трек 3 отсутствует в базе данных
Трек 4 отсутствует в базе данных
Трек 5 отсутствует в базе данных
Трек 6 отсутствует в базе данных
Трек 7 отсутствует в базе данных
Трек 8 отсутствует в базе данных
Трек 9 отсутствует в базе данных
Трек 10 отсутствует в базе данных
Трек 11 отсутствует в базе данных
Трек 12 отсутствует в базе данных
Трек 13 отсутствует в базе данных
Трек 14 отсутствует в базе данных
Трек 15 отсутствует в базе данных
Трек 16 отсутствует в базе данных
Трек 17 отсутствует в базе данных

Ни одного трека нет в базе AccurateRip

Конец отчёта

==== Контрольная сумма отчёта CCE781F9156F19EDD5089488E4F25F2EBB4F386875B6A55F2CC1D1E09294DB5B ====
Лог .CUE
REM GENRE Pop
REM DATE 2003
REM DISCID F1102B11
REM COMMENT "ExactAudioCopy v1.0b3"
PERFORMER "Росава"
TITLE "Просто Неба"
FILE "Росава - Просто Неба (2003).flac" WAVE
TRACK 01 AUDIO
TITLE "Просто неба"
PERFORMER "Росава"
INDEX 01 00:00:00
TRACK 02 AUDIO
TITLE "Обійми"
PERFORMER "Росава"
INDEX 01 01:52:03
TRACK 03 AUDIO
TITLE "Росава"
PERFORMER "Росава"
INDEX 01 05:30:58
TRACK 04 AUDIO
TITLE "Прокидаюсь"
PERFORMER "Росава"
INDEX 01 10:16:62
TRACK 05 AUDIO
TITLE "День & ніч"
PERFORMER "Росава"
INDEX 01 16:04:65
TRACK 06 AUDIO
TITLE "На волю в небеса"
PERFORMER "Росава"
INDEX 01 20:24:68
TRACK 07 AUDIO
TITLE "Ой, де ти"
PERFORMER "Росава"
INDEX 01 25:18:71
TRACK 08 AUDIO
TITLE "Зневірилась"
PERFORMER "Росава"
INDEX 01 29:17:00
TRACK 09 AUDIO
TITLE "Слова"
PERFORMER "Росава"
INDEX 01 33:43:03
TRACK 10 AUDIO
TITLE "Блудна"
PERFORMER "Росава"
INDEX 01 37:45:06
TRACK 11 AUDIO
TITLE "Косиця квітне"
PERFORMER "Росава"
INDEX 01 41:05:08
TRACK 12 AUDIO
TITLE "Обійми (Remix)"
PERFORMER "Росава"
INDEX 01 44:59:12
TRACK 13 AUDIO
TITLE "День & ніч (Remix)"
PERFORMER "Росава"
INDEX 01 49:15:16
TRACK 14 AUDIO
TITLE "Ой, рясна-красна (Колядка)"
PERFORMER "Росава"
INDEX 01 54:27:20
TRACK 15 AUDIO
TITLE "Дівчина така я"
PERFORMER "Росава"
INDEX 01 58:21:13
TRACK 16 AUDIO
TITLE "Отакая дівчина (Beag bit FS rmx)"
PERFORMER "Росава"
INDEX 01 61:55:18
TRACK 17 AUDIO
TITLE "Наша Україна"
PERFORMER "Росава"
INDEX 01 65:34:26
Лог auCDtect Task Manager
-----------------------

DON'T MODIFY THIS FILE

-----------------------

PERFORMER: auCDtect Task Manager, ver. 1.5.1RC6 build 1.5.1.7
Copyright (c) 2008-2010 y-soft. All rights reserved
http://y-soft.org

ANALYZER: auCDtect: CD records authenticity detector, version 0.8.2
Copyright (c) 2004 Oleg Berngardt. All rights reserved.
Copyright (c) 2004 Alexander Djourik. All rights reserved.

FILE: Росава - Просто Неба (2003).flac
Size: 478464832 Hash: 16A424D24431206713BE716C86AF5FF6 Accuracy: -m0
Conclusion: CDDA 99%
Signature: 1F771DA540A2DC5B01912882BDDD71892987A9CD


Срібний реліз (на рейтинг впливає 50% завантаженого)
 Трекер:    Зареєстрований   

Завантажити / скачати українську музику



відео для новачків



 Зареєстрований:   2013-03-14 23:55
 Розмір:   456 MB 
 Оцінка музики:   10/10 (Голосів: 2)
   
ssTAss 
Модератор музики


З нами з: 05.07.08
Востаннє: 05.12.16
Повідомлень: 10939

2013-03-15 00:55  
Ваш часовий пояс: GMT + 2 Години

Нова тема   Відповісти