Завантажити та скачати торренти українською


Кручений м'яч / Проблема з крученим / Trouble with the Curve (2012) AVC Eng | sub Ukr/Eng

Нові коментарі

Нова тема   Відповісти
Останній раз роздавалося ryslan777 (2016-12-08)
Автор Повідомлення
DеLight 
Відео Гуртом - фільмокрай
Відео Гуртом - фільмокрай


З нами з: 24.08.11
Востаннє: 17.11.16
Повідомлень: 663

2013-03-14 19:43  
Кручений м'яч / Проблема з крученим / Trouble with the Curve (2012) AVC Eng | sub Ukr/Eng

Кручений м'яч / Проблема з крученим / Trouble with the Curve (2012) AVC Eng | sub Ukr/Eng

«Whatever Life Throws at You»


Альтернативна обкладинка




Жанр: драма, спортивний
Країна: США



Кіностудія / кінокомпанія: Malpaso Productions, Warner Bros. Pictures
Режисер: Роберт Лоренц / Robert Lorenz
Актори: Клінт Іствуд / Clint Eastwood, Емі Адамс / Amy Adams, Джастін Тімберлейк / Justin Timberlake, Джон Ґудман / John Goodman, Роберт Патрік / Robert Patrick, Меттью Ліллард / Matthew Lillard та інші

Сюжет:
Історія літнього бейсбольного скаута. Герой поступово втрачає зір і разом з дочкою в останній раз вирушає на пошуки майбутніх зірок бейсболу.

» Це перший фільм за участю Клінта Іствуда в якості актора, у якому він не був режисером особисто, з часів «На лінії вогню» Вольфґанґа Петерсена (1993).
» На головну жіночу роль претендувала Сандра Буллок.


Тривалість: 01:51:13
Якість: AVC [source: Trouble with the Curve 2012 1080p Bluray Remux AVC -HD MA 5.1; ріп від potroks]

Відео:
кодек:
розмір кадру: 1056 x 440
бітрейт: 2 359 кб/с

Аудіо:
мова: англійська
переклад: оригінал
кодек: 5.1
бітрейт: 448 кб/с

Субтитри #1:
мова: українська
тип: програмні (м'які)
формат: *.srt
Розпізнавання, редагування - Delight

Субтитри #2: SDH
мова: англійська
тип: програмні (м'які)
формат: *.srt


Official Trailer (HD)


MediaInfo

Код:
General
Unique ID                      : 233923448184892961437819133741151810858 (0xAFFC047166A0308C8610EE936137F52A)
Complete name                  : D:\Torrents\Trouble with the Curve (2012) AVC [Eng, sub Ukr, Eng] [Hurtom].mkv
Format                         : Matroska
Format version                 : Version 4 / Version 2
File size                      : 2.18 GiB
Duration                       : 1h 51mn
Overall bit rate               : 2 808 Kbps
Movie name                     : Trouble with the Curve (2012) AVC [Eng, sub Ukr, Eng] [Hurtom] by Delight
Encoded date                   : UTC 2013-03-14 15:51:57
Writing application            : mkvmerge v6.1.0 ('Old Devil') built on Mar  2 2013 14:32:37
Writing library                : libebml v1.3.0 + libmatroska v1.4.0

Video
ID                             : 1
Format                         : AVC
Format/Info                    : Advanced Video Codec
Format profile                 : [email protected]
Format settings, CABAC         : Yes
Format settings, ReFrames      : 9 frames
Codec ID                       : V_MPEG4/ISO/AVC
Duration                       : 1h 51mn
Bit rate                       : 2 359 Kbps
Width                          : 1 056 pixels
Height                         : 440 pixels
Display aspect ratio           : 2.40:1
Frame rate mode                : Constant
Frame rate                     : 23.976 fps
Color space                    : YUV
Chroma subsampling             : 4:2:0
Bit depth                      : 8 bits
Scan type                      : Progressive
Bits/(Pixel*Frame)             : 0.212
Stream size                    : 1.79 GiB (82%)
Title                          : Trouble with the Curve (2012) AVC [potroks]
Writing library                : core 128 r2216M 198a7ea
Encoding settings              : cabac=1 / ref=10 / deblock=1:-2:-1 / analyse=0x3:0x133 / me=umh / subme=11 / psy=1 / psy_rd=1.05:0.00 / mixed_ref=1 / me_range=48 / chroma_me=1 / trellis=2 / 8x8dct=1 / cqm=0 / deadzone=21,11 / fast_pskip=0 / chroma_qp_offset=-2 / threads=4 / lookahead_threads=1 / sliced_threads=0 / nr=0 / decimate=1 / interlaced=0 / bluray_compat=0 / constrained_intra=0 / bframes=11 / b_pyramid=1 / b_adapt=2 / b_bias=0 / direct=3 / weightb=1 / open_gop=0 / weightp=2 / keyint=240 / keyint_min=23 / scenecut=40 / intra_refresh=0 / rc_lookahead=200 / rc=2pass / mbtree=1 / bitrate=2359 / ratetol=1.0 / qcomp=0.70 / qpmin=0 / qpmax=65 / qpstep=4 / cplxblur=20.0 / qblur=0.5 / vbv_maxrate=20000 / vbv_bufsize=25000 / nal_hrd=none / ip_ratio=1.35 / aq=1:0.75
Language                       : English
Default                        : Yes
Forced                         : No

Audio
ID                             : 2
Format                         : AC-3
Format/Info                    : Audio Coding 3
Mode extension                 : CM (complete main)
Format settings, Endianness    : Big
Codec ID                       : A_AC3
Duration                       : 1h 51mn
Bit rate mode                  : Constant
Bit rate                       : 448 Kbps
Channel(s)                     : 6 channels
Channel positions              : Front: L C R, Side: L R, LFE
Sampling rate                  : 48.0 KHz
Bit depth                      : 16 bits
Compression mode               : Lossy
Delay relative to video        : 27ms
Stream size                    : 356 MiB (16%)
Title                          : 5.1; 448 kbps; original
Language                       : English
Default                        : Yes
Forced                         : No

Text #1
ID                             : 3
Format                         : UTF-8
Codec ID                       : S_TEXT/UTF8
Codec ID/Info                  : UTF-8 Plain Text
Title                          : full [DVD R5 - edited by Delight]
Language                       : Ukrainian
Default                        : Yes
Forced                         : No

Text #2
ID                             : 4
Format                         : UTF-8
Codec ID                       : S_TEXT/UTF8
Codec ID/Info                  : UTF-8 Plain Text
Title                          : SDH
Language                       : English
Default                        : No
Forced                         : No

Світлини



















Джерело:
Особиста оцінка: 8 - мені сподобалося


 Трекер:    Зареєстрований   

Завантажити / скачати фільм українською



відео для новачків



 Зареєстрований:   2013-03-14 19:43
 Розмір:   2.18 GB 
 Оцінка фільму:   9.7/10 (Голосів: 22)
   
bntkm 
Свій


З нами з: 17.01.11
Востаннє: 07.12.16
Повідомлень: 136

2013-03-15 22:25  
А чому його зняли з прокату, ну і деякі інші фільми (Арго. Слова)?
Vetal-XL 
VIP


З нами з: 31.03.10
Востаннє: 10.12.16
Повідомлень: 837

2013-03-15 22:46  
bntkm написано:
А чому його зняли з прокату, ну і деякі інші фільми (Арго. Слова)?

Думали, що не окупиться. Тай тема для нас не дуже популярна (це я про бейсбол).

Віктор 
Відео Гуртом - субтитрування
Відео Гуртом - субтитрування


З нами з: 09.01.10
Востаннє: 09.12.16
Повідомлень: 8664

2013-03-15 23:36  
bntkm написано:
А чому його зняли з прокату, ну і деякі інші фільми (Арго. Слова)?

Арго і цей фільм питайте у цих http://www.facebook.com/Kinomania.Ukraine

Слова у цих http://www.facebook.com/pages/Ukrainian-Film-Distribution/107411339363246?sk=wall Більше запитів, більше вірогідність того, що наступного разу не скасують.

fanfckl 
Поважний учасник


З нами з: 05.04.11
Востаннє: 17.11.16
Повідомлень: 220

2014-02-15 19:19  
фільм непоганий, Клінт Іствуд відмінно зіграв
gomer-smpson 
Забанено
Забанено


З нами з: 14.12.12
Востаннє: 30.08.15
Повідомлень: 467

2015-08-25 17:59  
Іствуд як завжди гарні фільми робить - а якщо ще й в ньому зіграв то й поготів !, от озучення б як в "Гран Торіно" було б неперевершено!
Ua.bos_01 
VIP


З нами з: 22.06.15
Востаннє: 06.12.16
Повідомлень: 1291

2015-08-25 18:17  
Клінт Іствуд житиме вічно у своїх фільмах! Насправді дуже проникливий фільм, звісно не всім він сподобається, але по своєму фільм унікальний. Мені фільм сподобався.
Ваш часовий пояс: GMT + 2 Години

Нова тема   Відповісти