Завантажити та скачати торренти українською


Пастка / Deadfall (2012) AVC Eng | Sub Ukr/Eng

Нові коментарі

Нова тема   Відповісти
Автор Повідомлення
Віктор 
Відео Гуртом - субтитрування
Відео Гуртом - субтитрування


З нами з: 09.01.10
Востаннє: 09.12.16
Повідомлень: 8664

2013-03-14 16:09  
Пастка / Deadfall (2012) AVC Eng | Sub Ukr/Eng




Жанр: кримінальний, драма, трилер
Країна: США



Кіностудія / кінокомпанія: Magnolia Pictures, StudioCanal, 2929 Productions
Режисер: Стефан Руцовитьцкий (Stefan Ruzowitzky)
Композитор: Марко Белтрамі (Marco Beltrami)
Актори: Ерік Бана (Eric Bana), Олівія Вайлд (Olivia Wilde), Чарлі Ганнем (Charlie Hunnam), Патрік Кертон (Patrick Kerton), Квасі Сонґві (Kwasi Songui), Кріс Крістофферсон (Kris Kristofferson), Сіссі Спейсек (Sissy Spacek), Тріт Вільямс (Treat Williams) та інші.

Сюжет:
Брат і сестра – Еддісон і Лайза знаходяться в бігах із грошима, які вони вкрали в казино. Між тим, колишній-боксер Джей приїжджає на вечерю, до Дня подяки, до своїх батьків - Джейн, і шерифа у відставці Чета. Що станеться, коли їхні світи перетнуться?
MediaInfo

Код:
General
Unique ID                        : 195198257177316429231516878521236335985 (0x92D9D11DABE008E5B5E06D7E4BAE2D71)
Complete name                    : D:\HURTOM\Deadfall (2012) [Eng. Ukr.Sub] AVC [Hurtom]\Deadfall (2012) [Eng. Ukr.Sub] AVC [Hurtom].mkv
Format                           : Matroska
Format version                   : Version 2
File size                        : 1.89 GiB
Duration                         : 1h 34mn
Overall bit rate                 : 2 854 Kbps
Encoded date                     : UTC 2013-03-14 22:42:14
Writing application              : mkvmerge v5.0.1 ('Es ist Sommer') built on Oct  9 2011 11:55:43
Writing library                  : libebml v1.2.2 + libmatroska v1.3.0

Video
ID                               : 1
Format                           : AVC
Format/Info                      : Advanced Video Codec
Format profile                   : [email protected]
Format settings, CABAC           : Yes
Format settings, ReFrames        : 13 frames
Codec ID                         : V_MPEG4/ISO/AVC
Duration                         : 1h 34mn
Bit rate                         : 2 405 Kbps
Width                            : 1 026 pixels
Height                           : 436 pixels
Display aspect ratio             : 2.35:1
Frame rate                       : 23.976 fps
Color space                      : YUV
Chroma subsampling               : 4:2:0
Bit depth                        : 8 bits
Scan type                        : Progressive
Bits/(Pixel*Frame)               : 0.224
Stream size                      : 1.55 GiB (82%)
Title                            : Vaippp @ 2400 Kbps
Writing library                  : core 129 r2245 bc13772
Encoding settings                : cabac=1 / ref=13 / deblock=1:-2:-1 / analyse=0x3:0x133 / me=umh / subme=11 / psy=1 / psy_rd=1.10:0.01 / mixed_ref=1 / me_range=40 / chroma_me=1 / trellis=2 / 8x8dct=1 / cqm=0 / deadzone=21,11 / fast_pskip=0 / chroma_qp_offset=-3 / threads=12 / lookahead_threads=2 / sliced_threads=0 / nr=0 / decimate=0 / interlaced=0 / bluray_compat=0 / constrained_intra=0 / bframes=12 / b_pyramid=2 / b_adapt=2 / b_bias=0 / direct=3 / weightb=1 / open_gop=0 / weightp=2 / keyint=240 / keyint_min=22 / scenecut=40 / intra_refresh=0 / rc_lookahead=60 / rc=2pass / mbtree=0 / bitrate=2405 / ratetol=1.0 / qcomp=0.70 / qpmin=0 / qpmax=69 / qpstep=4 / cplxblur=20.0 / qblur=0.5 / vbv_maxrate=50000 / vbv_bufsize=50000 / nal_hrd=none / ip_ratio=1.40 / pb_ratio=1.30 / aq=1:0.85 / zones=127405,136142,q=35
Language                         : English
Default                          : Yes
Forced                           : No
Color primaries                  : BT.709-5, BT.1361, IEC 61966-2-4, SMPTE RP177
Transfer characteristics         : BT.709-5, BT.1361
Matrix coefficients              : BT.709-5, BT.1361, IEC 61966-2-4 709, SMPTE RP177

Audio
ID                               : 2
Format                           : AC-3
Format/Info                      : Audio Coding 3
Mode extension                   : CM (complete main)
Codec ID                         : A_AC3
Duration                         : 1h 34mn
Bit rate mode                    : Constant
Bit rate                         : 448 Kbps
Channel(s)                       : 6 channels
Channel positions                : Front: L C R, Side: L R, LFE
Sampling rate                    : 48.0 KHz
Bit depth                        : 16 bits
Compression mode                 : Lossy
Stream size                      : 303 MiB (16%)
Title                            : 5.1 @ 448 Kbps
Language                         : English
Default                          : Yes
Forced                           : No

Text #1
ID                               : 3
Format                           : UTF-8
Codec ID                         : S_TEXT/UTF8
Codec ID/Info                    : UTF-8 Plain Text
Language                         : Ukrainian
Default                          : Yes
Forced                           : No

Text #2
ID                               : 4
Format                           : UTF-8
Codec ID                         : S_TEXT/UTF8
Codec ID/Info                    : UTF-8 Plain Text
Title                            : SDH
Language                         : English
Default                          : No
Forced                           : No

Menu
00:00:00.000                     : en:Chapter 01
00:08:18.580                     : en:Chapter 02
00:18:18.931                     : en:Chapter 03
00:28:45.473                     : en:Chapter 04
00:35:57.697                     : en:Chapter 05
00:44:25.663                     : en:Chapter 06
00:53:32.792                     : en:Chapter 07
01:02:49.891                     : en:Chapter 08
01:09:32.167                     : en:Chapter 09
01:17:17.966                     : en:Chapter 10
01:22:01.832                     : en:Chapter 11
01:28:27.719                     : en:Chapter 12

В УКРАЇНСЬКОМУ ПРОКАТІ, СЕЙ ФІЛЬМ ДЕМОНСТРУВАВСЯ ВИНЯТКОВО З РОСІЙСЬКИМ ДУБЛЯЖЕМ, ТА УКР. СУБТИТРАМ. Кіно-прокатник Top Film Distribution



Тривалість: 01:34:38
Якість: AVC (Vaippp / HQ-ViDEO)
Відео:
кодек: x.264
розмір кадру: 1026x436 (2.35:1)
бітрейт: 2405 кб/с

Аудіо:
мова: англійська
переклад: ориґінал
кодек: 5.1
бітрейт: 448 кб/с

Субтитри # 1:
мова: українська (редагування - w2958l)
тип: програмні (м’які)
формат: *.srt

Субтитри # 2:
мова: англійська (SDH)
тип: програмні (м’які)
формат: *.srt

Скріншоти:





За люб’язно надані укр. субтитри подяка Vasua95


Джерело:
Особиста оцінка: 6


 Трекер:    Зареєстрований   

Завантажити / скачати фільм українською



відео для новачків



 Зареєстрований:   2013-03-15 01:15
 Розмір:   1.89 GB 
 Оцінка фільму:   8.5/10 (Голосів: 15)
   
Інші релізи
   Чорний дрізд / Deadfall (2012) 1080p Ukr/Eng | Sub Ukr/Eng ninenine  0 / 0   8.03 GB   2015-11-02 16:00 
   Чорний дрізд / Deadfall (2012) 720p Ukr/Eng | Sub Ukr/Eng/Pol igor911  3 / 1   5.67 GB   2015-11-02 14:54 
   Чорний дрізд / Deadfall (2012) 2xUkr/Eng | Sub Ukr/Eng Gelios  6 / 0   1.46 GB   2015-11-01 22:45 
asics1990 
Частий відвідувач


З нами з: 13.04.09
Востаннє: 09.12.16
Повідомлень: 38

2013-03-15 13:04  
Вікторе на мою думку ви слабенько оцінили цей фільм. Думаю тверду 7 можна ставити . Акторський склад доволі не поганий , звісно в сюжетній лінії не чого нового але один раз можна глянути .
The_Marlboro 
Відео Гуртом - субтитрування
Відео Гуртом - субтитрування


З нами з: 23.05.10
Востаннє: 10.12.16
Повідомлень: 2854

2013-04-04 22:53  
Слабеньке кіно. Ідеї немає, є гарні кадри, але персонажі якісь дивні. Для драми - сюжету немає, для бойовика - мало динаміки, заснути можна. Ні те ні се.
6/10

Xshot 
VIP


З нами з: 22.09.09
Востаннє: 27.11.16
Повідомлень: 1535

2013-06-08 17:01  
Офіційний український постер

Віктор 
Відео Гуртом - субтитрування
Відео Гуртом - субтитрування


З нами з: 09.01.10
Востаннє: 09.12.16
Повідомлень: 8664

2013-06-08 17:14  
Xshot написано:
Офіційний український постер

Нащо він мені? У грубу його разом з топ фільмом дисрибюшен

Xshot 
VIP


З нами з: 22.09.09
Востаннє: 27.11.16
Повідомлень: 1535

2013-06-08 17:19  
Я подумав: а що, хай буде)
don pedro 
Попереджень: 1
Попереджень: 1 


З нами з: 29.06.11
Востаннє: 10.12.16
Повідомлень: 8774

2015-11-02 02:07  
Віктор
Тому що той постер кращий.

Ваш часовий пояс: GMT + 2 Години

Нова тема   Відповісти