Завантажити та скачати торренти українською


Недаремно - Стежки До Тебе (2013) [FLAC] | Pop-Rock / Indie-Rock

Нові коментарі

Нова тема   Відповісти
Останній раз роздавалося vgai (2016-12-07)
Автор Повідомлення
muhomor 
VIP


З нами з: 04.12.11
Востаннє: 29.11.16
Повідомлень: 297

2013-03-13 23:38  
Недаремно - Стежки До Тебе (2013) [FLAC] | Pop-Rock / Indie-Rock

Недаремно - Стежки До Тебе (2013) [FLAC] | Pop-Rock / Indie-Rock


Стиль: Pop-Rock / Indie-Rock
Країна, місто: Україна, Дніпропетровськ
Сайти: Офіційний сайт
Видавець: Наш ФОРМАТ
Виконавці:
Марія Лотарева - вокал, тамбурин
Вова Тур - гітари, бек-вокал
Ростислав Терешко - гітара
Макс Лєщов - бас-гітара
Віталій Квас - барабани
Влад Фокін - клавіші, семпли
Пісні:
    01. Не Мій (Чотири)
    02. Світ Там, Де Ти
    03. Антитіла
    04. Знайду Стежки До Тебе
    05. Божевільне Кохання
    06. Двері Відчинені Завжди
    07. Кіношоу
    08. Дай Мені Слово
    09. Я Пішла За Тобою
    10. Ти Не Один
    Audiochecker


    AUDIOCHECKER v2.0 beta (build 457) - by Dester - [email protected]
    ~~~~~~~~~~~~~~~~~~~~~~~~~~~~~~~~~~

    Started at: среда, 13. 03. 2013. - 23:29.44
    10 files found

    01 -===- D:\hurtom.com\Недаремно - «Стежки До Тебе» (2013) (FLAC)\01 Недаремно Не Мій (Чотири).flac
    Extracted successfully
    Conclusion: this track is CDDA with probability 100%
    Tempfile successfully deleted.

    02 -===- D:\hurtom.com\Недаремно - «Стежки До Тебе» (2013) (FLAC)\02 Недаремно Світ Там Де Ти.flac
    Extracted successfully
    Conclusion: this track is CDDA with probability 99%
    Tempfile successfully deleted.

    03 -===- D:\hurtom.com\Недаремно - «Стежки До Тебе» (2013) (FLAC)\03 Недаремно Антитіла.flac
    Extracted successfully
    Conclusion: this track is CDDA with probability 100%
    Tempfile successfully deleted.

    04 -===- D:\hurtom.com\Недаремно - «Стежки До Тебе» (2013) (FLAC)\04 Недаремно Знайду Стежки До Тебе.flac
    Extracted successfully
    Conclusion: this track is CDDA with probability 100%
    Tempfile successfully deleted.

    05 -===- D:\hurtom.com\Недаремно - «Стежки До Тебе» (2013) (FLAC)\05 Недаремно Божевільне Кохання.flac
    Extracted successfully
    Conclusion: this track is CDDA with probability 100%
    Tempfile successfully deleted.

    06 -===- D:\hurtom.com\Недаремно - «Стежки До Тебе» (2013) (FLAC)\06 Недаремно Двері Відчинені Завжди.flac
    Extracted successfully
    Conclusion: this track is CDDA with probability 100%
    Tempfile successfully deleted.

    07 -===- D:\hurtom.com\Недаремно - «Стежки До Тебе» (2013) (FLAC)\07 Недаремно Кіношоу.flac
    Extracted successfully
    Conclusion: this track is CDDA with probability 100%
    Tempfile successfully deleted.

    08 -===- D:\hurtom.com\Недаремно - «Стежки До Тебе» (2013) (FLAC)\08 Недаремно Дай Мені Слово.flac
    Extracted successfully
    Conclusion: this track is CDDA with probability 100%
    Tempfile successfully deleted.

    09 -===- D:\hurtom.com\Недаремно - «Стежки До Тебе» (2013) (FLAC)\09 Недаремно Я Пішла За Тобою.flac
    Extracted successfully
    Conclusion: this track is CDDA with probability 100%
    Tempfile successfully deleted.

    10 -===- D:\hurtom.com\Недаремно - «Стежки До Тебе» (2013) (FLAC)\10 Недаремно Ти Не Один.flac
    Extracted successfully
    Conclusion: this track is CDDA with probability 100%
    Tempfile successfully deleted.

    Finished at: среда, 13. 03. 2013. - 23:34.13 (operation time: 0:04.29)
    Log

    Exact Audio Copy V1.0 beta 3 from 29. August 2011

    Отчёт EAC об извлечении, выполненном 13. марта 2013, 13:54

    Недаремно / Стежки До Тебе

    Дисковод: ASUS DRW-2014S1T Adapter: 2 ID: 8

    Режим чтения : Достоверность
    Использование точного потока : Да
    Отключение кэша аудио : Да
    Использование указателей C2 : Нет

    Коррекция смещения при чтении : 6
    Способность читать области Lead-in и Lead-out : Нет
    Заполнение пропущенных сэмплов тишиной : Да
    Удаление блоков с тишиной в начале и конце : Нет
    При вычислениях CRC использовались нулевые сэмплы : Да
    Интерфейс : Встроенный Win32-интерфейс для Win NT/2000
    Обработка зазоров : Добавлено к предыдущему треку

    Выходной формат : Пользовательский кодировщик
    Выбранный битрейт : 128 kBit/s
    Качество : Высокий
    Добавление ID3-тега : Нет
    Утилита сжатия : C:\Program Files\Exact Audio Copy\Flac\flac.exe
    Дополнительные параметры : -V -8 -T "Genre=%genre%" -T "Artist=%artist%" -T "Title=%title%" -T "Album=%albumtitle%" -T "Date=%year%" -T "Tracknumber=%tracknr%" -T "Comment=%comment%" %source%

    TOC извлечённого CD

    Трек | Старт | Длительность | Начальный сектор | Конечный сектор
    ---------------------------------------------------------------------
    1 | 0:00.00 | 2:54.55 | 0 | 13104
    2 | 2:54.55 | 3:49.54 | 13105 | 30333
    3 | 6:44.34 | 4:14.19 | 30334 | 49402
    4 | 10:58.53 | 3:48.63 | 49403 | 66565
    5 | 14:47.41 | 4:14.66 | 66566 | 85681
    6 | 19:02.32 | 4:13.10 | 85682 | 104666
    7 | 23:15.42 | 4:10.55 | 104667 | 123471
    8 | 27:26.22 | 3:15.59 | 123472 | 138155
    9 | 30:42.06 | 3:06.13 | 138156 | 152118
    10 | 33:48.19 | 2:20.20 | 152119 | 162638

    Трек 1

    Имя файла D:\Documents and Settings\user\Рабочий стол\«»—0–\01 Недаремно Не Мій (Чотири).wav

    Длина предзазора 0:00:02.00

    Пиковый уровень 100.0 %
    Скорость извлечения 4.6 X
    Качество трека 100.0 %
    CRC теста C6F8930D
    CRC копии C6F8930D
    Копирование... OK

    Трек 2

    Имя файла D:\Documents and Settings\user\Рабочий стол\«»—0–\02 Недаремно Світ Там Де Ти.wav

    Пиковый уровень 100.0 %
    Скорость извлечения 4.7 X
    Качество трека 99.9 %
    CRC теста B1247EAD
    CRC копии B1247EAD
    Копирование... OK

    Трек 3

    Имя файла D:\Documents and Settings\user\Рабочий стол\«»—0–\03 Недаремно Антитіла.wav

    Пиковый уровень 100.0 %
    Скорость извлечения 6.0 X
    Качество трека 100.0 %
    CRC теста DD24430F
    CRC копии DD24430F
    Копирование... OK

    Трек 4

    Имя файла D:\Documents and Settings\user\Рабочий стол\«»—0–\04 Недаремно Знайду Стежки До Тебе.wav

    Пиковый уровень 100.0 %
    Скорость извлечения 6.4 X
    Качество трека 100.0 %
    CRC теста 321FF3B5
    CRC копии 321FF3B5
    Копирование... OK

    Трек 5

    Имя файла D:\Documents and Settings\user\Рабочий стол\«»—0–\05 Недаремно Божевільне Кохання.wav

    Пиковый уровень 100.0 %
    Скорость извлечения 6.8 X
    Качество трека 100.0 %
    CRC теста ED0BB545
    CRC копии ED0BB545
    Копирование... OK

    Трек 6

    Имя файла D:\Documents and Settings\user\Рабочий стол\«»—0–\06 Недаремно Двері Відчинені Завжди.wav

    Пиковый уровень 100.0 %
    Скорость извлечения 7.2 X
    Качество трека 100.0 %
    CRC теста 75DA0AC1
    CRC копии 75DA0AC1
    Копирование... OK

    Трек 7

    Имя файла D:\Documents and Settings\user\Рабочий стол\«»—0–\07 Недаремно Кіношоу.wav

    Пиковый уровень 100.0 %
    Скорость извлечения 7.6 X
    Качество трека 100.0 %
    CRC теста 2027F67B
    CRC копии 2027F67B
    Копирование... OK

    Трек 8

    Имя файла D:\Documents and Settings\user\Рабочий стол\«»—0–\08 Недаремно Дай Мені Слово.wav

    Пиковый уровень 100.0 %
    Скорость извлечения 7.4 X
    Качество трека 100.0 %
    CRC теста C36A68B5
    CRC копии C36A68B5
    Копирование... OK

    Трек 9

    Имя файла D:\Documents and Settings\user\Рабочий стол\«»—0–\09 Недаремно Я Пішла За Тобою.wav

    Пиковый уровень 100.0 %
    Скорость извлечения 7.6 X
    Качество трека 100.0 %
    CRC теста C9649AB2
    CRC копии C9649AB2
    Копирование... OK

    Трек 10

    Имя файла D:\Documents and Settings\user\Рабочий стол\«»—0–\10 Недаремно Ти Не Один.wav

    Пиковый уровень 100.0 %
    Скорость извлечения 7.4 X
    Качество трека 100.0 %
    CRC теста D2275180
    CRC копии D2275180
    Копирование... OK

    Ошибок не произошло

    Конец отчёта

    ==== Контрольная сумма отчёта E042F3BF337AD5C1505C758238CD809A992D082549CB003A489CE6E9AB2FC543 ====

Тривалість: 00:36:03
Мова: українська
Аудіо-кодек: FLAC
Бітрейт: 994 кб/с
Джерело: ріп із власного CD
Додаткова інформація:
Дніпропетровський поп-рок гурт Недаремно презентував свій дебютний альбом. Платівка записувалась на івано-франківській студії Frost Magnetic Records під керівництвом Олега Мороза. «Нам було надзвичайно комфортно працювати з Олегом. Він та людина, яка здатна створити сприятливу атмосферу для колективу, що у нього записується: ми всі почувалися як вдома», – розповідає гітарист команди Володимир Тур.

більше про реліз за цим посиланням:
http://musicinua.wordpress.com/2013/02/27/51/


Якщо Ви справді бажаєте підтримати українське - після прослуховування, якщо музика вам сподобалась, придбайте ліцензійний диск. Підтримаймо вітчизняних виконавців!


Срібний реліз (на рейтинг впливає 50% завантаженого)
 Трекер:    Зареєстрований   

Завантажити / скачати українську музику



відео для новачків



 Зареєстрований:   2013-03-13 23:38
 Розмір:   257 MB 
 Оцінка музики:   10/10 (Голосів: 5)
   
Ваш часовий пояс: GMT + 2 Години

Нова тема   Відповісти