Завантажити та скачати торренти українською


nearr - DIE [EP] (2012) [FLAC] | Dream Pop / Lo-fi

Нові коментарі

Нова тема   Відповісти
Останній раз роздавалося Myfordownloads (2016-10-09)
Автор Повідомлення
muhomor 
VIP


З нами з: 04.12.11
Востаннє: 10.12.16
Повідомлень: 297

2013-03-13 23:08  
nearr - DIE [EP] (2012) [FLAC] | Dream Pop / Lo-fi

nearr - DIE [EP] (2012) [FLAC] | Dream Pop / Lo-fi


Стиль: Dream Pop / Lo-fi
Країна, місто: Україна, Харків
Видавець: самвидат
Виконавці:
Едуард Токуєв - музика, текст (2), вокал, гітара, клавіші, бас, барабани
Пісні:
    01. Dead End
    02. Tonight
    03. 9/10
    04. (You Can't) Do Anything Right
    05. I Know How To Do This Play Now
    Audiochecker

    AUDIOCHECKER v2.0 beta (build 457) - by Dester - [email protected]
    ~~~~~~~~~~~~~~~~~~~~~~~~~~~~~~~~~~

    Started at: среда, 13. 03. 2013. - 23:05.14
    5 files found

    1 -===- D:\hurtom.com\nearr - «DIE» [EP] (2012) (FLAC)\01 nearr Dead End.flac
    Extracted successfully
    Conclusion: this track is CDDA with probability 99%
    Tempfile successfully deleted.

    2 -===- D:\hurtom.com\nearr - «DIE» [EP] (2012) (FLAC)\02 nearr Tonight.flac
    Extracted successfully
    Conclusion: this track is CDDA with probability 100%
    Tempfile successfully deleted.

    3 -===- D:\hurtom.com\nearr - «DIE» [EP] (2012) (FLAC)\03 nearr 9,10.flac
    Extracted successfully
    Conclusion: this track is CDDA with probability 99%
    Tempfile successfully deleted.

    4 -===- D:\hurtom.com\nearr - «DIE» [EP] (2012) (FLAC)\04 nearr (You Can't) Do Anything Right.flac
    Extracted successfully
    Conclusion: this track is CDDA with probability 100%
    Tempfile successfully deleted.

    5 -===- D:\hurtom.com\nearr - «DIE» [EP] (2012) (FLAC)\05 nearr I Know How To Do This Play Now.flac
    Extracted successfully
    Conclusion: this track is MPEG with probability 92%
    Tempfile successfully deleted.

    Finished at: среда, 13. 03. 2013. - 23:06.37 (operation time: 0:01.23)
    Log


    Exact Audio Copy V1.0 beta 3 from 29. August 2011

    Отчёт EAC об извлечении, выполненном 13. марта 2013, 22:57

    nearr / «DIE» [EP]

    Дисковод: ASUS DRW-2014S1T Adapter: 2 ID: 8

    Режим чтения : Достоверность
    Использование точного потока : Да
    Отключение кэша аудио : Да
    Использование указателей C2 : Нет

    Коррекция смещения при чтении : 6
    Способность читать области Lead-in и Lead-out : Нет
    Заполнение пропущенных сэмплов тишиной : Да
    Удаление блоков с тишиной в начале и конце : Нет
    При вычислениях CRC использовались нулевые сэмплы : Да
    Интерфейс : Встроенный Win32-интерфейс для Win NT/2000
    Обработка зазоров : Добавлено к предыдущему треку

    Выходной формат : Пользовательский кодировщик
    Выбранный битрейт : 128 kBit/s
    Качество : Высокий
    Добавление ID3-тега : Нет
    Утилита сжатия : C:\Program Files\Exact Audio Copy\Flac\flac.exe
    Дополнительные параметры : -V -8 -T "Genre=%genre%" -T "Artist=%artist%" -T "Title=%title%" -T "Album=%albumtitle%" -T "Date=%year%" -T "Tracknumber=%tracknr%" -T "Comment=%comment%" %source%

    TOC извлечённого CD

    Трек | Старт | Длительность | Начальный сектор | Конечный сектор
    ---------------------------------------------------------------------
    1 | 0:00.00 | 1:22.47 | 0 | 6196
    2 | 1:22.47 | 4:07.56 | 6197 | 24777
    3 | 5:30.28 | 3:04.14 | 24778 | 38591
    4 | 8:34.42 | 2:47.08 | 38592 | 51124
    5 | 11:21.50 | 0:46.51 | 51125 | 54625
    6 | 14:40.26 | 4:24.30 | 66026 | 85855

    Трек 1

    Имя файла D:\Documents and Settings\user\Рабочий стол\«»—0–\01 nearr Dead End.wav

    Длина предзазора 0:00:02.00

    Пиковый уровень 54.0 %
    Скорость извлечения 0.3 X
    Качество трека 99.8 %
    CRC теста 93516B53
    CRC копии 93516B53
    Копирование... OK

    Трек 2

    Имя файла D:\Documents and Settings\user\Рабочий стол\«»—0–\02 nearr Tonight.wav

    Длина предзазора 0:00:01.73

    Пиковый уровень 68.3 %
    Скорость извлечения 0.6 X
    Качество трека 100.0 %
    CRC теста CE9BB8BC
    CRC копии CE9BB8BC
    Копирование... OK

    Трек 3

    Имя файла D:\Documents and Settings\user\Рабочий стол\«»—0–\03 nearr 9,10.wav

    Длина предзазора 0:00:01.73

    Пиковый уровень 69.1 %
    Скорость извлечения 0.6 X
    Качество трека 100.0 %
    CRC теста EFD178D8
    CRC копии EFD178D8
    Копирование... OK

    Трек 4

    Имя файла D:\Documents and Settings\user\Рабочий стол\«»—0–\04 nearr (You Can't) Do Anything Right.wav

    Длина предзазора 0:00:01.74

    Пиковый уровень 68.3 %
    Скорость извлечения 0.6 X
    Качество трека 100.0 %
    CRC теста 84909B3D
    CRC копии 84909B3D
    Копирование... OK

    Трек 5

    Имя файла D:\Documents and Settings\user\Рабочий стол\«»—0–\05 nearr I Know How To Do This Play Now.wav

    Длина предзазора 0:00:01.74

    Пиковый уровень 63.4 %
    Скорость извлечения 0.4 X
    Качество трека 100.0 %
    CRC теста F92CFC93
    CRC копии F92CFC93
    Копирование... OK

    Ошибок не произошло

    Конец отчёта

    ==== Контрольная сумма отчёта 93BABBA713C2FB1D9276F9CEEB05E54152A17956FEAA4009193007F186014572 ====

Тривалість: 00:11:58
Мова: англійська (2), інструментальні композиції (1, 3-5)
Аудіо-кодек: FLAC
Бітрейт: 598 кб/с
Джерело: ріп із власного CD
Додаткова інформація:
міні-альбом вийшов обмеженим тиражем на mini-CD. реліз отримав безліч схвальних відгуків від музичних критиків, які спеціалізуються на вітчизняній андеграундній сцені


Якщо Ви справді бажаєте підтримати українське - після прослуховування, якщо музика вам сподобалась, придбайте ліцензійний диск. Підтримаймо вітчизняних виконавців!


Срібний реліз (на рейтинг впливає 50% завантаженого)
 Трекер:    Зареєстрований   

Завантажити / скачати українську музику



відео для новачків



 Зареєстрований:   2013-03-13 23:08
 Розмір:   52 MB 
 Оцінка музики:   7/10 (Голосів: 3)
   
Ваш часовий пояс: GMT + 2 Години

Нова тема   Відповісти