Завантажити та скачати торренти українською


Мертвий після прибуття / Доправлено мертвим / D.O.A. (1988) AVC Ukr/Eng | sub Eng

Нові коментарі

Нова тема   Відповісти
Автор Повідомлення
Demetrios 
VIP


З нами з: 28.01.10
Востаннє: 11.12.16
Повідомлень: 301

2013-03-11 22:06  
Мертвий після прибуття / Доправлено мертвим / D.O.A. (1988) AVC Ukr/Eng | sub Eng

Мертвий після прибуття / Доправлено мертвим / D.O.A. (1988) AVC Ukr/Eng | sub Eng
Альтернативний постер


Жанр: нео-нуар, детектив, трилер
Країна: США



Кіностудія / кінокомпанія: Touchstone Pictures, Bigelow Productions
Режисер: Аннабел Дженкел, Роккі Мортон
Актори: Денніс Квейд, Меґ Раян (Meg Ryan), Шарлотта Ремплінґ, Деніел Стерн

Сюжет:
Іноді людина дізнається, що помре, за кілька годин до загибелі. Як професор коледжу Декстер Корнелл, який одного моторошного моменту виявляє, що отруєний повільно діючою отрутою і приречений на болісну смерть через добу. Мотивів злочину немає. Є лише неприборкана жага знайти за цю добу свого вбивцю і і змусити його відповісти за скоєне. Обмаль часу, але живому мерцеві втрачати нічого: він не буде церемонитися на своєму страшному шляху до правди... і смерті. Відлік пішов.


Тривалість: 01:37:32
Якість: AVC
Відео:
кодек:
розмір кадру: 944 х 512
бітрейт: 2 998 кб/с

Аудіо # 1:
мова: українська
переклад: багатоголосий закадровий
кодек: 2.0
бітрейт: 192 кб/с

Аудіо # 2:
мова: англійська
переклад: оригінал
кодек: 2.0
бітрейт: 224 кб/с

Джерело озвучення:
ТТП на замовлення

Субтитри:
мова: англійська
тип: програмні (м'які)
формат: *.srt
MediaInfo
Код:
Complete name                            : D.O.A. (1988).mkv
Format                                   : Matroska
Format version                           : Version 2
File size                                : 2.33 GiB
Duration                                 : 1h 37mn
Overall bit rate                         : 3 414 Kbps
Encoded date                             : UTC 2013-03-11 00:42:53
Writing application                      : mkvmerge v4.5.0 ('Speed of Light') зібрано Feb  1 2011 02:10:32
Writing library                          : libebml v1.2.0 + libmatroska v1.1.0

Video
ID                                       : 1
Format                                   : AVC
Format/Info                              : Advanced Video Codec
Format profile                           : [email protected]
Format settings, CABAC                   : Yes
Format settings, ReFrames                : 8 frames
Muxing mode                              : Header stripping
Codec ID                                 : V_MPEG4/ISO/AVC
Duration                                 : 1h 37mn
Bit rate                                 : 2 998 Kbps
Width                                    : 944 pixels
Height                                   : 512 pixels
Display aspect ratio                     : 1.85:1
Frame rate mode                          : Constant
Frame rate                               : 23.976 fps
Color space                              : YUV
Chroma subsampling                       : 4:2:0
Bit depth                                : 8 bits
Scan type                                : Progressive
Bits/(Pixel*Frame)                       : 0.259
Stream size                              : 2.00 GiB (86%)
Writing library                          : core 125 r2200 999b753
Encoding settings                        : cabac=1 / ref=8 / deblock=1:-2:-2 / analyse=0x3:0x113 / me=umh / subme=10 / psy=1 / psy_rd=1.00:0.10 / mixed_ref=1 / me_range=32 / chroma_me=1 / trellis=2 / 8x8dct=1 / cqm=0 / deadzone=21,11 / fast_pskip=0 / chroma_qp_offset=-3 / threads=3 / lookahead_threads=1 / sliced_threads=0 / nr=0 / decimate=0 / interlaced=0 / bluray_compat=0 / constrained_intra=0 / bframes=14 / b_pyramid=2 / b_adapt=2 / b_bias=0 / direct=3 / weightb=1 / open_gop=0 / weightp=2 / keyint=230 / keyint_min=23 / scenecut=40 / intra_refresh=0 / rc=2pass / mbtree=0 / bitrate=2998 / ratetol=1.0 / qcomp=0.60 / qpmin=0 / qpmax=51 / qpstep=4 / cplxblur=20.0 / qblur=0.5 / ip_ratio=1.40 / pb_ratio=1.30 / aq=1:0.90
Language                                 : English
Default                                  : No
Forced                                   : No

Audio #1
ID                                       : 2
Format                                   : AC-3
Format/Info                              : Audio Coding 3
Mode extension                           : CM (complete main)
Format settings, Endianness              : Big
Muxing mode                              : Header stripping
Codec ID                                 : A_AC3
Duration                                 : 1h 37mn
Bit rate mode                            : Constant
Bit rate                                 : 192 Kbps
Channel(s)                               : 2 channels
Channel positions                        : Front: L R
Sampling rate                            : 48.0 KHz
Bit depth                                : 16 bits
Compression mode                         : Lossy
Stream size                              : 134 MiB (6%)
Language                                 : Ukrainian
Default                                  : Yes
Forced                                   : No

Audio #2
ID                                       : 3
Format                                   : AC-3
Format/Info                              : Audio Coding 3
Mode extension                           : CM (complete main)
Format settings, Endianness              : Big
Muxing mode                              : Header stripping
Codec ID                                 : A_AC3
Duration                                 : 1h 37mn
Bit rate mode                            : Constant
Bit rate                                 : 224 Kbps
Channel(s)                               : 2 channels
Channel positions                        : Front: L R
Sampling rate                            : 48.0 KHz
Bit depth                                : 16 bits
Compression mode                         : Lossy
Stream size                              : 156 MiB (7%)
Title                                    : 2ch @ 224 kbps
Language                                 : English
Default                                  : No
Forced                                   : No

Text
ID                                       : 4
Format                                   : UTF-8
Codec ID                                 : S_TEXT/UTF8
Codec ID/Info                            : UTF-8 Plain Text
Language                                 : English
Default                                  : No
Forced                                   : No

Menu
00:00:00.000                             : :00:00:00.000
00:04:14.128                             : :00:04:14.128
00:11:19.095                             : :00:11:19.095
00:20:53.001                             : :00:20:53.001
00:34:22.393                             : :00:34:22.393
00:44:24.119                             : :00:44:24.119
00:50:35.115                             : :00:50:35.115
00:56:56.037                             : :00:56:56.037
01:02:53.519                             : :01:02:53.519
01:12:57.289                             : :01:12:57.289
01:21:50.196                             : :01:21:50.196
01:33:32.565                             : :01:33:32.565
Скріншоти:


Джерело: &
Звук з архіву Hurtom (dvorsky), відео з рутрекера. Я просто видалив російські доріжки і додав українську, вона повністю підійшла.

Особиста оцінка: 9 - давно не бачив настільки якісне кіно; чудовий нео-нуар, римейк класичного фільму-нуар. Плюс Меґ Раян.

Див. також:
Фільмографія нео-нуару на Гуртом


Срібний реліз (на рейтинг впливає 50% завантаженого)
 Трекер:    Зареєстрований   

Завантажити / скачати фільм українською



відео для новачків



 Зареєстрований:   2013-03-11 22:06
 Розмір:   2.33 GB 
 Оцінка фільму:   9.2/10 (Голосів: 12)
   
Ваш часовий пояс: GMT + 2 Години

Нова тема   Відповісти