Завантажити та скачати торренти українською


Ансамбль народної музики "Аркан" - Аркан (2002) [FLAC] | Folk

Нові коментарі

Нова тема   Відповісти
Автор Повідомлення
Anonymous 







2013-03-10 20:25  
Ансамбль народної музики "Аркан" - Аркан (2002) [FLAC] | Folk

Ансамбль народної музики "Аркан" - Аркан (2002) [FLAC] | Folk


Стиль: Folk
Країна, місто: Україна, Львів
Видавець: Гал рекордс
Виконавці:
Микола Милович - баян
Іван Огар - контрабас
Юрій Польовий - скрипка
Володимир Пукаляк - кларнет
Юрій Реґа - цимбали
Марія Руд - сопрано

Пісні:
    1. Аркан, карпатські наспіви (муз. народна)
    2. Полька "Старий дідусь" (муз. народна)
    3. Українська концертна полька (муз. Д. Попічука)
    4. Буковинський народний танець
    5. Журавлі (угорська народна мелодія)
    6. Зелений листочок (українська народна пісня)
    7. Попід гай (українська народна пісня)
    8. Українські жартівливі мелодії (муз. В. Попадюка)
    9. Галицька барвиста (муз. Ю. Польового)
    10. Гуцулка Ксеня (муз. Я. Барнича)
    11. Коломийки (муз. В. Попадюка)
    12. Місяць на небі (українська народна пісня)
    13. Глибока кирниця (українська народна пісня)
    14. Козачок (український народний танець)
    15. Чардаш (муз. В. Монті)
    16. Гуцулка (муз. С. Кушнірук)
    17. Подільська полька (муз. В. Попадюка)
    18. Ой, я знаю, що гріх маю (українська народна пісня)
    19. Словацький чардаш (муз. Бєлогубека)
    20. Намисто (муз. Ю. Польового)
    21. Український марш (обр. А. Чуйка)
log
Exact Audio Copy V1.0 beta 3 from 29. August 2011

Отчёт EAC об извлечении, выполненном 19. марта 2013, 21:44

ARKAN / Arkan

Дисковод: TSSTcorpCDDVDW TS-L633A Adapter: 0 ID: 1

Режим чтения : Достоверность
Использование точного потока : Да
Отключение кэша аудио : Да
Использование указателей C2 : Нет

Коррекция смещения при чтении : 6
Способность читать области Lead-in и Lead-out : Нет
Заполнение пропущенных сэмплов тишиной : Да
Удаление блоков с тишиной в начале и конце : Нет
При вычислениях CRC использовались нулевые сэмплы : Да
Интерфейс : Встроенный Win32-интерфейс для Win NT/2000
Обработка зазоров : Не обнаружено, добавлено к предыдущему треку

Выходной формат : Пользовательский кодировщик
Выбранный битрейт : 896 kBit/s
Качество : Высокий
Добавление ID3-тега : Нет
Утилита сжатия : C:\Program Files\Exact Audio Copy\FLAC\FLAC.EXE
Дополнительные параметры : -8 -V -T "ARTIST=%artist%" -T "TITLE=%title%" -T "ALBUM=%albumtitle%" -T "DATE=%year%" -T "TRACKNUMBER=%tracknr%" -T "GENRE=%genre%" -T "COMMENT=%comment%" -T "BAND=%albuminterpret%" -T "ALBUMARTIST=%albuminterpret%" -T "COMPOSER=%composer%" %haslyrics%--tag-from-file=LYRICS="%lyricsfile%"%haslyrics% -T "DISCNUMBER=%cdnumber%" -T "TOTALDISCS=%totalcds%" -T "TOTALTRACKS=%numtracks%" %hascover%--picture="%coverfile%"%hascover% %source% -o %dest%

TOC извлечённого CD

Трек | Старт | Длительность | Начальный сектор | Конечный сектор
---------------------------------------------------------------------
1 | 0:00.00 | 5:32.23 | 0 | 24922
2 | 5:32.23 | 2:34.55 | 24923 | 36527
3 | 8:07.03 | 2:43.51 | 36528 | 48803
4 | 10:50.54 | 2:20.33 | 48804 | 59336
5 | 13:11.12 | 5:06.08 | 59337 | 82294
6 | 18:17.20 | 2:17.61 | 82295 | 92630
7 | 20:35.06 | 2:31.12 | 92631 | 103967
8 | 23:06.18 | 3:08.16 | 103968 | 118083
9 | 26:14.34 | 3:58.52 | 118084 | 135985
10 | 30:13.11 | 3:14.48 | 135986 | 150583
11 | 33:27.59 | 1:26.27 | 150584 | 157060
12 | 34:54.11 | 2:48.51 | 157061 | 169711
13 | 37:42.62 | 2:38.00 | 169712 | 181561
14 | 40:20.62 | 3:30.18 | 181562 | 197329
15 | 43:51.05 | 5:20.32 | 197330 | 221361
16 | 49:11.37 | 3:17.09 | 221362 | 236145
17 | 52:28.46 | 2:20.27 | 236146 | 246672
18 | 54:48.73 | 3:25.27 | 246673 | 262074
19 | 58:14.25 | 4:00.26 | 262075 | 280100
20 | 62:14.51 | 3:31.00 | 280101 | 295925
21 | 65:45.51 | 2:42.53 | 295926 | 308128

Трек 1

Имя файла C:\Users\toshiba\Downloads\RelizyZ11\Ansambl narodnoyi muzyky ARKAN - Arkan (2002) [FLAC]2\01. Аркан, карпатські наспіви.wav

Пиковый уровень 82.9 %
Скорость извлечения 1.6 X
Качество трека 99.9 %
CRC копии E070334F
Копирование... OK

Трек 2

Имя файла C:\Users\toshiba\Downloads\RelizyZ11\Ansambl narodnoyi muzyky ARKAN - Arkan (2002) [FLAC]2\02. Полька Старий дідусь.wav

Пиковый уровень 82.6 %
Скорость извлечения 1.0 X
Качество трека 100.0 %
CRC копии 61508885
Копирование... OK

Трек 3

Имя файла C:\Users\toshiba\Downloads\RelizyZ11\Ansambl narodnoyi muzyky ARKAN - Arkan (2002) [FLAC]2\03. Українська концертна полька.wav

Пиковый уровень 92.4 %
Скорость извлечения 0.9 X
Качество трека 99.9 %
CRC копии 31C0F3EC
Копирование... OK

Трек 4

Имя файла C:\Users\toshiba\Downloads\RelizyZ11\Ansambl narodnoyi muzyky ARKAN - Arkan (2002) [FLAC]2\04. Буковинський народний танець.wav

Пиковый уровень 94.8 %
Скорость извлечения 0.9 X
Качество трека 99.9 %
CRC копии 7B1EEC29
Копирование... OK

Трек 5

Имя файла C:\Users\toshiba\Downloads\RelizyZ11\Ansambl narodnoyi muzyky ARKAN - Arkan (2002) [FLAC]2\05. Журавлі.wav

Пиковый уровень 94.5 %
Скорость извлечения 1.2 X
Качество трека 99.9 %
CRC копии 9728A26A
Копирование... OK

Трек 6

Имя файла C:\Users\toshiba\Downloads\RelizyZ11\Ansambl narodnoyi muzyky ARKAN - Arkan (2002) [FLAC]2\06. Зелений листочок.wav

Пиковый уровень 100.0 %
Скорость извлечения 1.3 X
Качество трека 100.0 %
CRC копии C73310C7
Копирование... OK

Трек 7

Имя файла C:\Users\toshiba\Downloads\RelizyZ11\Ansambl narodnoyi muzyky ARKAN - Arkan (2002) [FLAC]2\07. Попід гай.wav

Пиковый уровень 86.0 %
Скорость извлечения 1.4 X
Качество трека 100.0 %
CRC копии 706BA3D3
Копирование... OK

Трек 8

Имя файла C:\Users\toshiba\Downloads\RelizyZ11\Ansambl narodnoyi muzyky ARKAN - Arkan (2002) [FLAC]2\08. Українські жартівливі мелодії.wav

Пиковый уровень 91.9 %
Скорость извлечения 1.1 X
Качество трека 99.9 %
CRC копии 5A9543EB
Копирование... OK

Трек 9

Имя файла C:\Users\toshiba\Downloads\RelizyZ11\Ansambl narodnoyi muzyky ARKAN - Arkan (2002) [FLAC]2\09. Галицька барвиста.wav

Пиковый уровень 91.8 %
Скорость извлечения 1.2 X
Качество трека 99.9 %
CRC копии BCAC2854
Копирование... OK

Трек 10

Имя файла C:\Users\toshiba\Downloads\RelizyZ11\Ansambl narodnoyi muzyky ARKAN - Arkan (2002) [FLAC]2\10. Гуцулка Ксеня.wav

Пиковый уровень 90.3 %
Скорость извлечения 1.6 X
Качество трека 100.0 %
CRC копии 4E19024C
Копирование... OK

Трек 11

Имя файла C:\Users\toshiba\Downloads\RelizyZ11\Ansambl narodnoyi muzyky ARKAN - Arkan (2002) [FLAC]2\11. Коломийки.wav

Пиковый уровень 89.3 %
Скорость извлечения 1.4 X
Качество трека 100.0 %
CRC копии A7A48050
Копирование... OK

Трек 12

Имя файла C:\Users\toshiba\Downloads\RelizyZ11\Ansambl narodnoyi muzyky ARKAN - Arkan (2002) [FLAC]2\12. Місяць на небі.wav

Пиковый уровень 83.3 %
Скорость извлечения 1.7 X
Качество трека 100.0 %
CRC копии 97EFA0FB
Копирование... OK

Трек 13

Имя файла C:\Users\toshiba\Downloads\RelizyZ11\Ansambl narodnoyi muzyky ARKAN - Arkan (2002) [FLAC]2\13. Глибока кирниця.wav

Пиковый уровень 89.1 %
Скорость извлечения 1.1 X
Качество трека 99.9 %
CRC копии 834FF56D
Копирование... OK

Трек 14

Имя файла C:\Users\toshiba\Downloads\RelizyZ11\Ansambl narodnoyi muzyky ARKAN - Arkan (2002) [FLAC]2\14. Козачок.wav

Пиковый уровень 94.1 %
Скорость извлечения 1.8 X
Качество трека 100.0 %
CRC копии 07D23F0D
Копирование... OK

Трек 15

Имя файла C:\Users\toshiba\Downloads\RelizyZ11\Ansambl narodnoyi muzyky ARKAN - Arkan (2002) [FLAC]2\15. Чардаш.wav

Пиковый уровень 87.9 %
Скорость извлечения 2.0 X
Качество трека 100.0 %
CRC копии 066C3D40
Копирование... OK

Трек 16

Имя файла C:\Users\toshiba\Downloads\RelizyZ11\Ansambl narodnoyi muzyky ARKAN - Arkan (2002) [FLAC]2\16. Гуцулка.wav

Пиковый уровень 97.9 %
Скорость извлечения 1.9 X
Качество трека 100.0 %
CRC копии 761B8738
Копирование... OK

Трек 17

Имя файла C:\Users\toshiba\Downloads\RelizyZ11\Ansambl narodnoyi muzyky ARKAN - Arkan (2002) [FLAC]2\17. Подільська полька.wav

Пиковый уровень 82.9 %
Скорость извлечения 1.7 X
Качество трека 100.0 %
CRC копии 4B78EBB1
Копирование... OK

Трек 18

Имя файла C:\Users\toshiba\Downloads\RelizyZ11\Ansambl narodnoyi muzyky ARKAN - Arkan (2002) [FLAC]2\18. Ой, я знаю, що гріх маю.wav

Пиковый уровень 85.1 %
Скорость извлечения 2.1 X
Качество трека 100.0 %
CRC копии 57A4F8FD
Копирование... OK

Трек 19

Имя файла C:\Users\toshiba\Downloads\RelizyZ11\Ansambl narodnoyi muzyky ARKAN - Arkan (2002) [FLAC]2\19. Словацький чардаш.wav

Пиковый уровень 91.3 %
Скорость извлечения 1.5 X
Качество трека 99.9 %
CRC копии 9C564ECB
Копирование... OK

Трек 20

Имя файла C:\Users\toshiba\Downloads\RelizyZ11\Ansambl narodnoyi muzyky ARKAN - Arkan (2002) [FLAC]2\20. Намисто.wav

Пиковый уровень 87.1 %
Скорость извлечения 2.1 X
Качество трека 100.0 %
CRC копии 574198B0
Копирование... OK

Трек 21

Имя файла C:\Users\toshiba\Downloads\RelizyZ11\Ansambl narodnoyi muzyky ARKAN - Arkan (2002) [FLAC]2\21. Український марш.wav

Пиковый уровень 90.4 %
Скорость извлечения 1.3 X
Качество трека 99.9 %
CRC копии 4448B998
Копирование... OK

Ошибок не произошло

Конец отчёта

---- CUETools DB Plugin V2.1.3

[CTDB TOCID: z2yvBgkL_dGWuuHo_WXjhsGbD6s-] disk not present in database, Submit result: z2yvBgkL_dGWuuHo_WXjhsGbD6s- has been uploaded

Exact Audio Copy V1.0 beta 3 from 29. August 2011

Отчёт EAC об извлечении, выполненном 3. апреля 2013, 20:52

ARKAN / Arkan

Дисковод: TSSTcorpCDDVDW TS-L633A Adapter: 0 ID: 1

Режим чтения : Достоверность
Использование точного потока : Да
Отключение кэша аудио : Да
Использование указателей C2 : Нет

Коррекция смещения при чтении : 6
Способность читать области Lead-in и Lead-out : Нет
Заполнение пропущенных сэмплов тишиной : Да
Удаление блоков с тишиной в начале и конце : Нет
При вычислениях CRC использовались нулевые сэмплы : Да
Интерфейс : Встроенный Win32-интерфейс для Win NT/2000

Выходной формат : Внутренние WAV-операции
Формат сэмплов : 44.100 Гц; 16 бит; стерео

TOC извлечённого CD

Трек | Старт | Длительность | Начальный сектор | Конечный сектор
---------------------------------------------------------------------
1 | 0:00.00 | 5:32.23 | 0 | 24922
2 | 5:32.23 | 2:34.55 | 24923 | 36527
3 | 8:07.03 | 2:43.51 | 36528 | 48803
4 | 10:50.54 | 2:20.33 | 48804 | 59336
5 | 13:11.12 | 5:06.08 | 59337 | 82294
6 | 18:17.20 | 2:17.61 | 82295 | 92630
7 | 20:35.06 | 2:31.12 | 92631 | 103967
8 | 23:06.18 | 3:08.16 | 103968 | 118083
9 | 26:14.34 | 3:58.52 | 118084 | 135985
10 | 30:13.11 | 3:14.48 | 135986 | 150583
11 | 33:27.59 | 1:26.27 | 150584 | 157060
12 | 34:54.11 | 2:48.51 | 157061 | 169711
13 | 37:42.62 | 2:38.00 | 169712 | 181561
14 | 40:20.62 | 3:30.18 | 181562 | 197329
15 | 43:51.05 | 5:20.32 | 197330 | 221361
16 | 49:11.37 | 3:17.09 | 221362 | 236145
17 | 52:28.46 | 2:20.27 | 236146 | 246672
18 | 54:48.73 | 3:25.27 | 246673 | 262074
19 | 58:14.25 | 4:00.26 | 262075 | 280100
20 | 62:14.51 | 3:31.00 | 280101 | 295925
21 | 65:45.51 | 2:42.53 | 295926 | 308128

Характеристики диапазона извлечения и сообщения об ошибках

Выбранный диапазон

Имя файла C:\Users\toshiba\Downloads\RelizyZ11\Ansambl narodnoyi muzyky ARKAN - Arkan (2002) [FLAC]\ARKAN - Arkan.wav

Пиковый уровень 100.0 %
Скорость извлечения 3.7 X
Качество диапазона 100.0 %
CRC копии 9E4A30B6
Копирование... OK

Ошибок не произошло

AccurateRip: сводка

Трек 1 отсутствует в базе данных
Трек 2 отсутствует в базе данных
Трек 3 отсутствует в базе данных
Трек 4 отсутствует в базе данных
Трек 5 отсутствует в базе данных
Трек 6 отсутствует в базе данных
Трек 7 отсутствует в базе данных
Трек 8 отсутствует в базе данных
Трек 9 отсутствует в базе данных
Трек 10 отсутствует в базе данных
Трек 11 отсутствует в базе данных
Трек 12 отсутствует в базе данных
Трек 13 отсутствует в базе данных
Трек 14 отсутствует в базе данных
Трек 15 отсутствует в базе данных
Трек 16 отсутствует в базе данных
Трек 17 отсутствует в базе данных
Трек 18 отсутствует в базе данных
Трек 19 отсутствует в базе данных
Трек 20 отсутствует в базе данных
Трек 21 отсутствует в базе данных

Ни одного трека нет в базе AccurateRip

Конец отчёта

---- CUETools DB Plugin V2.1.3

[CTDB TOCID: z2yvBgkL_dGWuuHo_WXjhsGbD6s-] found, Submit result: already submitted
[e0919d64] (1/1) Accurately ripped
fooCDtect
fooCDtect - foobar2000 + auCDtect, baralgin.

auCDtect: CD records authenticity detector, version 0.8.2
Copyright (c) 2004 Oleg Berngardt. All rights reserved.
Copyright (c) 2004 Alexander Djourik. All rights reserved.

mode: 0

===========================================
Track: 01 - Аркан, карпатські наспіви
Quality: CDDA 99%
===========================================
Track: 02 - Полька 'Старий дідусь'
Quality: CDDA 99%
===========================================
Track: 03 - Українська концертна полька
Quality: CDDA 100%
===========================================
Track: 04 - Буковинський народний танець
Quality: CDDA 100%
===========================================
Track: 05 - Журавлі (угорська народна мелодія)
Quality: CDDA 100%
===========================================
Track: 06 - Зелений листочок (українська народна пісня)
Quality: CDDA 100%
===========================================
Track: 07 - Попід гай (українська народна пісня)
Quality: CDDA 100%
===========================================
Track: 08 - Українські жартівливі мелодії
Quality: CDDA 100%
===========================================
Track: 09 - Галицька барвиста
Quality: CDDA 99%
===========================================
Track: 10 - Гуцулка Ксеня
Quality: CDDA 54%
===========================================
Track: 11 - Коломийки
Quality: CDDA 99%
===========================================
Track: 12 - Місяць на небі (українська народна пісня)
Quality: CDDA 100%
===========================================
Track: 13 - Глибока кирниця (українська народна пісня)
Quality: CDDA 100%
===========================================
Track: 14 - Козачок (український народний танець)
Quality: CDDA 100%
===========================================
Track: 15 - Чардаш
Quality: CDDA 87%
===========================================
Track: 16 - Гуцулка
Quality: CDDA 100%
===========================================
Track: 17 - Подільска полька
Quality: CDDA 100%
===========================================
Track: 18 - Ой, я знаю, що гріх маю (українська народна пісня)
Quality: CDDA 100%
===========================================
Track: 19 - Словацький чардаш
Quality: CDDA 85%
===========================================
Track: 20 - Намисто
Quality: CDDA 99%
===========================================
Track: 21 - Український марш
Quality: CDDA 100%
===========================================
Тривалість: 01:08:28
Мова: українська (6, 7, 12, 13, 18), інструментальні композиції (1-5, 8-11, 14-17, 19-21)
Аудіо-кодек: FLAC
Бітрейт: 774 кб/с
Джерело: власний ріп з диску
Тип ріпу: image + cue + обкладинки

Додаткова інформація:
Запис:
Студія "Мелос"
звукорежисер Богдан Стефура
Студія "МД" (6, 7, 12, 13, 18)
звукорежисер Маркіян Дрібнюк


Увага! Торрент-файл оновлено 03.04.13!


Срібний реліз (на рейтинг впливає 50% завантаженого)
 Трекер:    Зареєстрований   

Завантажити / скачати українську музику



відео для новачків



 Зареєстрований:   2013-04-03 20:33
 Розмір:   383 MB 
 Оцінка музики:   10/10 (Голосів: 3)
   
ssTAss 
Модератор музики


З нами з: 05.07.08
Востаннє: 03.12.16
Повідомлень: 10930

2013-03-10 20:38  
Sehrg-Gut написано:
Аудіо-кодек: WAV

запакуйте в флак чи апе
а взагалі радив би робити точні ріпи за допомогою програмки EAC

Anonymous 







2013-03-10 20:52  
ssTAss написано:

запакуйте в флак чи апе
а взагалі радив би робити точні ріпи за допомогою програмки EAC

Привіт, Стасе!
Завантажив ЕАС. Зараз розберуся з нею і, сподіваюся, перевикладу у FLAC.

ssTAss 
Модератор музики


З нами з: 05.07.08
Востаннє: 03.12.16
Повідомлень: 10930

2013-03-18 23:00  
флак це добре, але з назвами щось у Вас не клеїться
до речі, перевірив - диск якісний, тому прошу якнайскоріш розібратись з ЕАС-ом і викласти нормальний ріп

Anonymous 







2013-03-19 13:23  
ssTAss написано:

флак це добре, але з назвами щось у Вас не клеїться
до речі, перевірив - диск якісний, тому прошу якнайскоріш розібратись з ЕАС-ом і викласти нормальний ріп

Так, що не роблю, назви пропонуються тільки "Track...". Доведеться переназивати руцями.Happy
Сподіваюся, сьогодні з ЕАС все вийде.

musicfan 
Модератор музики


З нами з: 27.01.09
Востаннє: 02.12.16
Повідомлень: 893

2013-03-19 14:20  
Найменування треків в ЕАС
У налаштуваннях програми у табі Filename потрібно звернути увагу на вхідне поле з текстом: %T. EAC генерує імена файлу, використовуючи цей рядок. Пояснення % надається в EAC безпосередньо. Наприклад, якщо ви хочете витягнути November Rain группи Guns N' Roses з диску Use Your Illusion I використовуючи %DCN - %A - %T, як Позначення схеми, то ім'я mp3 файлу буде 10 - Guns N' Roses - November Rain.mp3 (пісня знаходиться під номером 10 на диску). Файл буде розміщений в папці ..\Guns N' Roses\Use Your Illusion I\ де .. вказує папку в яку ви вказали EAC робити запис ріпу.

Ви можете експериментувати з різними комбінаціями для будівництва імені файлу. Якщо ви хочете щоб всі треки з віх дисків, витягувались в одну і ту саму папку, ви можете використовувати щось подібне до %A, - %T.

ssTAss 
Модератор музики


З нами з: 05.07.08
Востаннє: 03.12.16
Повідомлень: 10930

2013-03-19 14:53  
Sehrg-Gut написано:
Так, що не роблю, назви пропонуються тільки "Track...". Доведеться переназивати руцями.

а Ви як хотіли, щоб вони називались автоматично?
таке можливе тільки тоді коли у Вас налаштований акурейтріп і диск є в їхній базі
в решта випадків треба в програмі писати руцями
ставите диск, запускаєте ЕАС і в перед початком ріпання все заповнюєте - альбом, виконавець, стиль, рік. назва кожного треку... тоді визначаєте проміжки, тестуєте і робите сам ріп (в інструкції, що надсилав Вам, все описано детально - від налаштування самої програми до зняття ріпу)

musicfan 
Модератор музики


З нами з: 27.01.09
Востаннє: 02.12.16
Повідомлень: 893

2013-03-19 14:56  
Sehrg-Gut написано:
Доведеться переназивати руцями

Діло того варте!

ssTAss 
Модератор музики


З нами з: 05.07.08
Востаннє: 03.12.16
Повідомлень: 10930

2013-03-20 01:45  
Sehrg-Gut'е, замінив торрент файл на інший - створив за допомогою програми куетулс образ+куе+лог і навіть не довелось заповнювати теги - прога сама знайшла в базі цей диск, тільки рік чомусь стояв 2001... змінив
так би мав виглядати Ваш реліз (в ідеалі ще б скани)
всього три (з обкладинкою - чотири) файли і точний ріп диску у вас на компі (сюди додав ще два невеличкі і не обов'язкові файлики - звіт CUETools і fooCDtect)

P.S. якшо ви проти такої заміни, то прошу мені відписати, повернемо на звичайний потрековий реліз

Anonymous 







2013-03-20 06:06  
ssTAss
Не проти, дякую. Сьогодні відсканую обкладинку (хоча вона трохи пожмакана) і ввечері відправлю.

ssTAss 
Модератор музики


З нами з: 05.07.08
Востаннє: 03.12.16
Повідомлень: 10930

2013-03-20 14:50  
Sehrg-Gut написано:
Сьогодні відсканую обкладинку (хоча вона трохи пожмакана)

якщо маєте можливість, то відскануйте все - і обкладинку, і зворотню сторону, і диск, і буклет (якщо є)

Ваш часовий пояс: GMT + 2 Години

Нова тема   Відповісти