Завантажити та скачати торренти українською


Серцевий напад - Fight For Hope (2010) [FLAC] | Pop Punk

Нові коментарі

Нова тема   Відповісти
Останній раз роздавалося natashelka (2016-12-08)
Автор Повідомлення
fanDYNAMO 
Частий відвідувач


З нами з: 30.12.12
Востаннє: 05.12.16
Повідомлень: 38

2013-03-10 20:22  
Серцевий напад - Fight For Hope (2010) [FLAC] | Pop Punk

Серцевий напад - Fight For Hope (2010) [FLAC] | Pop Punk


Стиль: Punk
Країна, місто: Україна, Луцьк-Чернівці
Сайти: Офіційний сайт
Видавець: Буковина М'юзик (Черновцы)
Виконавці:
Склад:
Дмитро (Мітрій) Рябий — вокал, бас-гітара;
Олексій (Льоша) Літвін — ритм-гітара;
Олександр (Шурік) Макарчук — ударні,вокал.
Олександр (Кот) Мурзін - соло-гітара.

Колишні учасники:
Сергій Куріний (MOZART) — 8bit/keyboards;
Толя Мазур — труба, клавіші;
Василь Балахтар (Бейс) — гітара;
Михайло Балахтар (Майкл) — ударні,
Олександр Романов (Бок) — ритм-гітара, бек-вокал
Фелікс Шустер — скрипка

Пісні:
    01 Fight For Hope (01:08)
    02 Коля не знау (03:14)
    03 Мовчи (03:05)
    04 Fact Food (02:09)
    05 Нестерпна (03:04)
    06 Wake up (02:47)
    07 Не така (02:42)
    08 Ы! (00:08)
    09 Slut (02:09)
    10 B.I.T.C.H. (04:28)
    11 Я не вірю вам (02:48)
    12 Хто ти є? (02:54)
    13 Fruity-Dooty (02:53)
    14 Звільни себе (02:52)
    15 Happiness (02:28)
    16 Outro (00:50)

Тривалість: 00:39:42
Мова: українська та англійська (1, 6, 13), українська (2-5, 7-12, 14), англійська (15)
Аудіо-кодек: FLAC
Бітрейт: ~990 кб/с
Джерело: Власний CD
Лог EAC
Exact Audio Copy V1.0 beta 3 from 29. August 2011

Отчёт EAC об извлечении, выполненном 25. февраля 2013, 16:49

Серцевий напад / Fight For Hope

Дисковод: HL-DT-STDVDRAM GH24NS90 Adapter: 2 ID: 0

Режим чтения : Достоверность
Использование точного потока : Да
Отключение кэша аудио : Да
Использование указателей C2 : Нет

Коррекция смещения при чтении : 6
Способность читать области Lead-in и Lead-out : Нет
Заполнение пропущенных сэмплов тишиной : Да
Удаление блоков с тишиной в начале и конце : Нет
При вычислениях CRC использовались нулевые сэмплы : Да
Интерфейс : Встроенный Win32-интерфейс для Win NT/2000

Выходной формат : Пользовательский кодировщик
Выбранный битрейт : 128 kBit/s
Качество : Высокий
Добавление ID3-тега : Нет
Утилита сжатия : C:\Program Files (x86)\Exact Audio Copy\Flac\flac.exe
Дополнительные параметры : -V -8 -T "Date=%year%" -T "Genre=%genre%" %source%

TOC извлечённого CD

Трек | Старт | Длительность | Начальный сектор | Конечный сектор
---------------------------------------------------------------------
1 | 0:00.00 | 1:08.00 | 0 | 5099
2 | 1:08.00 | 3:14.13 | 5100 | 19662
3 | 4:22.13 | 3:05.04 | 19663 | 33541
4 | 7:27.17 | 2:09.47 | 33542 | 43263
5 | 9:36.64 | 3:04.60 | 43264 | 57123
6 | 12:41.49 | 2:47.03 | 57124 | 69651
7 | 15:28.52 | 2:42.25 | 69652 | 81826
8 | 18:11.02 | 0:08.04 | 81827 | 82430
9 | 18:19.06 | 2:09.00 | 82431 | 92105
10 | 20:28.06 | 4:28.57 | 92106 | 112262
11 | 24:56.63 | 2:48.10 | 112263 | 124872
12 | 27:44.73 | 2:54.05 | 124873 | 137927
13 | 30:39.03 | 2:53.09 | 137928 | 150911
14 | 33:32.12 | 2:52.23 | 150912 | 163834
15 | 36:24.35 | 2:28.17 | 163835 | 174951
16 | 38:52.52 | 0:50.09 | 174952 | 178710

Характеристики диапазона извлечения и сообщения об ошибках

Выбранный диапазон

Имя файла E:\Серцевий напад - Fight For Hope (2010)\Серцевий напад - Fight For Hope.wav

Пиковый уровень 100.0 %
Скорость извлечения 7.3 X
Качество диапазона 100.0 %
CRC теста 525EC765
CRC копии 525EC765
Копирование... OK

Ошибок не произошло

AccurateRip: сводка

Трек 1 отсутствует в базе данных
Трек 2 отсутствует в базе данных
Трек 3 отсутствует в базе данных
Трек 4 отсутствует в базе данных
Трек 5 отсутствует в базе данных
Трек 6 отсутствует в базе данных
Трек 7 отсутствует в базе данных
Трек 8 отсутствует в базе данных
Трек 9 отсутствует в базе данных
Трек 10 отсутствует в базе данных
Трек 11 отсутствует в базе данных
Трек 12 отсутствует в базе данных
Трек 13 отсутствует в базе данных
Трек 14 отсутствует в базе данных
Трек 15 отсутствует в базе данных
Трек 16 отсутствует в базе данных

Ни одного трека нет в базе AccurateRip

Конец отчёта

==== Контрольная сумма отчёта 9428196D01A505A9EC041CCC12B3BD39AB976940805032B0B307C9196D5C1229 ====
Лог .CUE
REM GENRE "Pop Punk"
REM DATE 2010
REM DISCID C7094E10
REM COMMENT "ExactAudioCopy v1.0b3"
PERFORMER "Серцевий напад"
TITLE "Fight For Hope"
FILE "Серцевий напад - Fight For Hope.flac" WAVE
TRACK 01 AUDIO
TITLE "Fight For Hope"
PERFORMER "Серцевий напад"
FLAGS DCP
INDEX 01 00:00:00
TRACK 02 AUDIO
TITLE "Коля не знау"
PERFORMER "Серцевий напад"
FLAGS DCP
INDEX 00 01:06:00
INDEX 01 01:08:00
TRACK 03 AUDIO
TITLE "Мовчи"
PERFORMER "Серцевий напад"
FLAGS DCP
INDEX 00 04:20:13
INDEX 01 04:22:13
TRACK 04 AUDIO
TITLE "Fact Food"
PERFORMER "Серцевий напад"
FLAGS DCP
INDEX 00 07:25:17
INDEX 01 07:27:17
TRACK 05 AUDIO
TITLE "Нестерпна"
PERFORMER "Серцевий напад"
FLAGS DCP
INDEX 00 09:34:64
INDEX 01 09:36:64
TRACK 06 AUDIO
TITLE "Wake up"
PERFORMER "Серцевий напад"
FLAGS DCP
INDEX 00 12:39:49
INDEX 01 12:41:49
TRACK 07 AUDIO
TITLE "Не така"
PERFORMER "Серцевий напад"
FLAGS DCP
INDEX 00 15:26:52
INDEX 01 15:28:52
TRACK 08 AUDIO
TITLE "Ы!"
PERFORMER "Серцевий напад"
FLAGS DCP
INDEX 00 18:09:02
INDEX 01 18:11:02
TRACK 09 AUDIO
TITLE "Slut"
PERFORMER "Серцевий напад"
FLAGS DCP
INDEX 00 18:17:06
INDEX 01 18:19:06
TRACK 10 AUDIO
TITLE "B.I.T.C.H."
PERFORMER "Серцевий напад"
FLAGS DCP
INDEX 00 20:26:06
INDEX 01 20:28:06
TRACK 11 AUDIO
TITLE "Я не вірю вам"
PERFORMER "Серцевий напад"
FLAGS DCP
INDEX 00 24:54:63
INDEX 01 24:56:63
TRACK 12 AUDIO
TITLE "Хто ти є?"
PERFORMER "Серцевий напад"
FLAGS DCP
INDEX 00 27:42:73
INDEX 01 27:44:73
TRACK 13 AUDIO
TITLE "Fruity-Dooty"
PERFORMER "Серцевий напад"
FLAGS DCP
INDEX 00 30:37:03
INDEX 01 30:39:03
TRACK 14 AUDIO
TITLE "Звільни себе"
PERFORMER "Серцевий напад"
FLAGS DCP
INDEX 00 33:30:12
INDEX 01 33:32:12
TRACK 15 AUDIO
TITLE "Happiness"
PERFORMER "Серцевий напад"
FLAGS DCP
INDEX 00 36:22:35
INDEX 01 36:24:35
TRACK 16 AUDIO
TITLE "Outro"
PERFORMER "Серцевий напад"
FLAGS DCP
INDEX 00 38:50:52
INDEX 01 38:52:52
Лог auCDtectTaskManager
-----------------------

DON'T MODIFY THIS FILE

-----------------------

PERFORMER: auCDtect Task Manager, ver. 1.5.1RC6 build 1.5.1.7
Copyright (c) 2008-2010 y-soft. All rights reserved
http://y-soft.org

ANALYZER: auCDtect: CD records authenticity detector, version 0.8.2
Copyright (c) 2004 Oleg Berngardt. All rights reserved.
Copyright (c) 2004 Alexander Djourik. All rights reserved.

FILE: Серцевий напад - Fight For Hope.flac
Size: 294820708 Hash: AF9DFB3CE697F24723F1E1BE6DB12FAB Accuracy: -m0
Conclusion: MPEG 95%
Signature: 0DFE28C1D45FF67487BB41E32CA57C9EDCFC2376
Спекторгама



Срібний реліз (на рейтинг впливає 50% завантаженого)
 Трекер:    Зареєстрований   

Завантажити / скачати українську музику



відео для новачків



 Зареєстрований:   2013-03-10 20:22
 Розмір:   284 MB 
 Оцінка музики:   10/10 (Голосів: 4)
   
ssTAss 
Модератор музики


З нами з: 05.07.08
Востаннє: 08.12.16
Повідомлень: 10947

2013-03-10 20:46  
http://toloka.to/t21836

Додано через 8 хвилин 9 секунд:

спочатку повиставив повтор, а потім подумав і переніс назад в розділ
у Вас нормальний (точний) ріп, а там без куе потрековий
тому, схиляюсь до того, щоб залишити Ваш... викладіть тільки вміст лог-файлу під спойлер

Додано через 2 хвилини 54 секунди:

fanDYNAMO написано:
собака любит мясо, ворона любит сыр, а я люблю "ДИНАМО", "ДИНАМО" - мой кумир!!!

я розумію, що Ви фан динамо, але у нас пишуть тільки українською
Цитата:
Всім без винятку заборонено:
2.1 Спілкуватися іншою мовою, аніж літературною українською; використовувати для написання українських слів іншу абетку, аніж кирилицю

Ваш часовий пояс: GMT + 2 Години

Нова тема   Відповісти