Завантажити та скачати торренти українською


Серцевий напад - Golden $hits (2009) [FLAC] | Pop Punk

Нові коментарі

Нова тема   Відповісти
Останній раз роздавалося Myfordownloads (2016-10-09)
Автор Повідомлення
fanDYNAMO 
Частий відвідувач


З нами з: 30.12.12
Востаннє: 05.12.16
Повідомлень: 38

2013-03-10 17:23  
Серцевий напад - Golden $hits (2009) [FLAC] | Pop Punk

Серцевий напад - Golden $hits (2009) [FLAC] | Pop Punk


Стиль: Punk
Країна, місто: Україна, Луцьк-Чернівці
Сайти: Офіційний сайт
Видавець: Буковина М'юзик (Черновцы) / "MUZARECORDS" ВДТРК (Луцк)
Виконавці:
Склад:
Дмитро (Мітрій) Рябий — вокал, бас-гітара;
Олексій (Льоша) Літвін — ритм-гітара;
Олександр (Шурік) Макарчук — ударні,вокал.
Олександр (Кот) Мурзін - соло-гітара.

Колишні учасники:
Сергій Куріний (MOZART) — 8bit/keyboards;
Толя Мазур — труба, клавіші;
Василь Балахтар (Бейс) — гітара;
Михайло Балахтар (Майкл) — ударні,
Олександр Романов (Бок) — ритм-гітара, бек-вокал
Фелікс Шустер — скрипка
Пісні:
    01 Пробач 03:09
    02 Оптимістична 02:27
    03 Москва 03:05
    04 Черепашки Нінзя 02:25
    05 Не прийшла 02:33
    06 Дитинство 05:02
    07 Жахлива 01:32
    08 Субкультура 02:09
    09 ТакFuck 01:37
    10 Punk Girl 02:03
    11 Фалоімітатор 03:14
    12 WC'туп 00:43

Тривалість: 00:30:04
Мова: українська (01-12)
Аудіо-кодек: FLAC
Бітрейт: ~946 кб/с
Джерело: Власний CD
Лог EAC
Exact Audio Copy V1.0 beta 3 from 29. August 2011

Отчёт EAC об извлечении, выполненном 25. февраля 2013, 17:20

- / Golden $hits

Дисковод: HL-DT-STDVDRAM GH24NS90 Adapter: 2 ID: 0

Режим чтения : Достоверность
Использование точного потока : Да
Отключение кэша аудио : Да
Использование указателей C2 : Нет

Коррекция смещения при чтении : 6
Способность читать области Lead-in и Lead-out : Нет
Заполнение пропущенных сэмплов тишиной : Да
Удаление блоков с тишиной в начале и конце : Нет
При вычислениях CRC использовались нулевые сэмплы : Да
Интерфейс : Встроенный Win32-интерфейс для Win NT/2000

Выходной формат : Пользовательский кодировщик
Выбранный битрейт : 128 kBit/s
Качество : Высокий
Добавление ID3-тега : Нет
Утилита сжатия : C:\Program Files (x86)\Exact Audio Copy\Flac\flac.exe
Дополнительные параметры : -V -8 -T "Date=%year%" -T "Genre=%genre%" %source%

TOC извлечённого CD

Трек | Старт | Длительность | Начальный сектор | Конечный сектор
---------------------------------------------------------------------
1 | 0:00.00 | 3:09.00 | 0 | 14174
2 | 3:09.00 | 2:27.30 | 14175 | 25229
3 | 5:36.30 | 3:05.03 | 25230 | 39107
4 | 8:41.33 | 2:25.15 | 39108 | 49997
5 | 11:06.48 | 2:33.29 | 49998 | 61501
6 | 13:40.02 | 5:02.73 | 61502 | 84224
7 | 18:43.00 | 1:32.14 | 84225 | 91138
8 | 20:15.14 | 2:09.60 | 91139 | 100873
9 | 22:24.74 | 1:37.61 | 100874 | 108209
10 | 24:02.60 | 2:03.26 | 108210 | 117460
11 | 26:06.11 | 3:14.60 | 117461 | 132070
12 | 29:20.71 | 0:43.37 | 132071 | 135332
13 | 32:36.33 | 2:45.38 | 146733 | 159145

Характеристики диапазона извлечения и сообщения об ошибках

Выбранный диапазон

Имя файла E:\Серцевий напад - Golden $hits (2009)\Golden $hits.wav

Пиковый уровень 69.7 %
Скорость извлечения 7.3 X
Качество диапазона 99.9 %
CRC теста B337246A
CRC копии B337246A
Копирование... OK

Ошибок не произошло

AccurateRip: сводка

Трек 1 отсутствует в базе данных
Трек 2 отсутствует в базе данных
Трек 3 отсутствует в базе данных
Трек 4 отсутствует в базе данных
Трек 5 отсутствует в базе данных
Трек 6 отсутствует в базе данных
Трек 7 отсутствует в базе данных
Трек 8 отсутствует в базе данных
Трек 9 отсутствует в базе данных
Трек 10 отсутствует в базе данных
Трек 11 отсутствует в базе данных
Трек 12 отсутствует в базе данных

Ни одного трека нет в базе AccurateRip

Конец отчёта

==== Контрольная сумма отчёта 6000CE2A282D3FAAFAF6EBBF87D9DF7FB3273132EF9912E3EA21487F1FD2CE25 ====
Лог .CUE
REM GENRE "Pop Punk"
REM DATE 2009
REM DISCID AF08490D
REM COMMENT "ExactAudioCopy v1.0b3"
PERFORMER ""
TITLE "Golden $hits"
FILE "Golden $hits.flac" WAVE
TRACK 01 AUDIO
TITLE "Пробач"
PERFORMER "Серцевий Напад"
FLAGS DCP
INDEX 01 00:00:00
TRACK 02 AUDIO
TITLE "Оптимістична"
PERFORMER "Серцевий Напад"
FLAGS DCP
INDEX 01 03:09:00
TRACK 03 AUDIO
TITLE "Москва"
PERFORMER "Серцевий Напад"
FLAGS DCP
INDEX 01 05:36:30
TRACK 04 AUDIO
TITLE "Черепашки Нінзя"
PERFORMER "Серцевий Напад"
FLAGS DCP
INDEX 01 08:41:33
TRACK 05 AUDIO
TITLE "Не прийшла"
PERFORMER "Серцевий Напад"
FLAGS DCP
INDEX 01 11:06:48
TRACK 06 AUDIO
TITLE "Дитинство"
PERFORMER "Серцевий Напад"
FLAGS DCP
INDEX 01 13:40:02
TRACK 07 AUDIO
TITLE "Жахлива"
PERFORMER "Серцевий Напад"
FLAGS DCP
INDEX 01 18:43:00
TRACK 08 AUDIO
TITLE "Субкультура"
PERFORMER "Серцевий Напад"
FLAGS DCP
INDEX 01 20:15:14
TRACK 09 AUDIO
TITLE "ТакFuck"
PERFORMER "Серцевий Напад"
FLAGS DCP
INDEX 01 22:24:74
TRACK 10 AUDIO
TITLE "Punk Girl"
PERFORMER "Серцевий Напад"
FLAGS DCP
INDEX 01 24:02:60
TRACK 11 AUDIO
TITLE "Фалоімітатор"
PERFORMER "Серцевий Напад"
FLAGS DCP
INDEX 01 26:06:11
TRACK 12 AUDIO
TITLE "WC'туп"
PERFORMER "Серцевий Напад"
FLAGS DCP
INDEX 01 29:20:71
Лог auCDtectTaskManager
-----------------------

DON'T MODIFY THIS FILE

-----------------------

PERFORMER: auCDtect Task Manager, ver. 1.5.1RC6 build 1.5.1.7
Copyright (c) 2008-2010 y-soft. All rights reserved
http://y-soft.org

ANALYZER: auCDtect: CD records authenticity detector, version 0.8.2
Copyright (c) 2004 Oleg Berngardt. All rights reserved.
Copyright (c) 2004 Alexander Djourik. All rights reserved.

FILE: Golden $hits.flac
Size: 213222043 Hash: D5150E309BC7FA1267CEE15C680CAA57 Accuracy: -m0
Conclusion: CDDA 99%
Signature: 98FEC87EE3BE890A104D15D99BD17F58209FC214


Срібний реліз (на рейтинг впливає 50% завантаженого)
 Трекер:    Зареєстрований   

Завантажити / скачати українську музику



відео для новачків



 Зареєстрований:   2013-03-10 17:23
 Розмір:   206 MB 
 Оцінка музики:   7.8/10 (Голосів: 4)
   
Ваш часовий пояс: GMT + 2 Години

Нова тема   Відповісти