Завантажити та скачати торренти українською


Червоний Дракон / Red Dragon (2002) 720p Ukr/Eng | Sub Eng

Нові коментарі

Нова тема   Відповісти
Автор Повідомлення
aalleexx85 
Відео Гуртом - фільмокрай
Відео Гуртом - фільмокрай


З нами з: 27.07.10
Востаннє: 02.12.16
Повідомлень: 1138

2013-03-09 12:07  
Червоний Дракон / Red Dragon (2002) 720p Ukr/Eng | Sub Eng

Червоний Дракон / Red Dragon (2002) 720p Ukr/Eng | Sub Eng

"Before the silence.
Meet Hannibal Lecter for the first time."


Жанр: трилер, детектив, драма, кримінальний
Країна: США, Німеччина



Кіностудія / кінокомпанія: Universal Pictures, Dino De Laurentiis Productions
Режисер: Бретт Ретнер /Brett Ratner
Актори: Ентоні Гопкінс / Anthony Hopkins, Едвард Нортон / Edward Norton, Рейф Фейнс /Ralph Fiennes/, Харві Кейтел /Harvey Keitel/, Емілі Вотсон /Emily Watson/, Мері-Луіз Паркер /Mary-Louise Parker/

Сюжет:
Події цієї стрічки розгортаються до подій, описаних в «Мовчанні ягнят» і до появи Клариси Старлінг. Ми знайомимся з людиною, яка спіймала Ганнібала Лектора, — спеціальним агентом ФБР Віллом Гремом. Після арешту Лектора, який ледве не вартував Грему життя, Вілл йде зі служби в Бюро.
Проте, поява нового жахливого серійного вбивці заставляє Грема повернутися на службу. Цей безжальний монстр, якого преса вже охрестила «Зубною Феєю», ночами вирізає цілі сім'ї. Тепер Віллу потрібна порада від досвідченого спеціаліста по психічним аномаліям, і він звертається за допогою до свого старого знайомого… доктора «Ганнібала-каннібала» Лектора!


Тривалість: 02:04:31
Якість:
Відео:
кодек:
розмір кадру: 1280x536
бітрейт: 4071 кб/с

Аудіо # 1:
мова: українська
переклад: двоголосий закадровий, озвучений Студія ТВ+ на замовлення
кодек: 5.1
бітрейт: 448 кб/с
ролі озвучили: Анатолій Зіновенко і Людмила Ардельян

Аудіо # 2:
мова: англійська
переклад: оригінал
кодек: 5.1
бітрейт: 384 кб/с

Субтитри:
мова: англійська
тип: програмні (м'які)
формат: *.srt
MediaInfo
Unique ID : 172415055139071458299893784280489313558 (0x81B5EE8788252BC9949EAC297B70C516)
Complete name : G:\Video\Drama\Red Dragon (2002) [Ukr,Eng] 720p [Hurtom].mkv
Format : Matroska
Format version : Version 2
File size : 4.26 GiB
Duration : 2h 4mn
Overall bit rate : 4 902 Kbps
Movie name : Red Dragon (2002) [Ukr,Eng] 720p [Hurtom]
Encoded date : UTC 2013-03-08 20:30:06
Writing application : mkvmerge v4.9.1 ('Ich will') зібрано Jul 11 2011 23:53:15
Writing library : libebml v1.2.1 + libmatroska v1.1.1

Video
ID : 1
Format : AVC
Format/Info : Advanced Video Codec
Format profile : [email protected]
Format settings, CABAC : Yes
Format settings, ReFrames : 5 frames
Codec ID : V_MPEG4/ISO/AVC
Duration : 2h 4mn
Bit rate : 4 071 Kbps
Width : 1 280 pixels
Height : 536 pixels
Display aspect ratio : 2.40:1
Frame rate : 23.976 fps
Color space : YUV
Chroma subsampling : 4:2:0
Bit depth : 8 bits
Scan type : Progressive
Bits/(Pixel*Frame) : 0.247
Stream size : 3.45 GiB (81%)
Title : Red Dragon (2002) [Ukr,Eng] 720p [Hurtom]
Writing library : core 67 r1162M f7bfcfa
Encoding settings : cabac=1 / ref=5 / deblock=1:-1:-1 / analyse=0x3:0x113 / me=umh / subme=9 / psy_rd=1.0:0.0 / mixed_ref=1 / me_range=24 / chroma_me=1 / trellis=2 / 8x8dct=1 / cqm=0 / deadzone=21,11 / chroma_qp_offset=-2 / threads=12 / nr=0 / decimate=1 / mbaff=0 / bframes=3 / b_pyramid=0 / b_adapt=2 / b_bias=0 / direct=3 / wpredb=1 / keyint=240 / keyint_min=24 / scenecut=40 / rc=2pass / bitrate=4071 / ratetol=1.0 / qcomp=0.60 / qpmin=10 / qpmax=51 / qpstep=4 / cplxblur=20.0 / qblur=0.5 / vbv_maxrate=40000 / vbv_bufsize=40000 / ip_ratio=1.40 / pb_ratio=1.30 / aq=1:1.00
Language : English
Default : Yes
Forced : No

Audio #1
ID : 2
Format : AC-3
Format/Info : Audio Coding 3
Mode extension : CM (complete main)
Codec ID : A_AC3
Duration : 2h 4mn
Bit rate mode : Constant
Bit rate : 448 Kbps
Channel(s) : 6 channels
Channel positions : Front: L C R, Side: L R, LFE
Sampling rate : 48.0 KHz
Bit depth : 16 bits
Compression mode : Lossy
Stream size : 399 MiB (9%)
Title : TV+
Language : Ukrainian
Default : Yes
Forced : No

Audio #2
ID : 3
Format : AC-3
Format/Info : Audio Coding 3
Mode extension : CM (complete main)
Codec ID : A_AC3
Duration : 2h 4mn
Bit rate mode : Constant
Bit rate : 384 Kbps
Channel(s) : 6 channels
Channel positions : Front: L C R, Side: L R, LFE
Sampling rate : 48.0 KHz
Bit depth : 16 bits
Compression mode : Lossy
Delay relative to video : 28ms
Stream size : 342 MiB (8%)
Title : original
Language : English
Default : No
Forced : No

Text
ID : 4
Format : UTF-8
Codec ID : S_TEXT/UTF8
Codec ID/Info : UTF-8 Plain Text
Language : English
Default : No
Forced : No
Світлини:



Українська звукова доріжка від _oles

Джерело:
Особиста оцінка: 10 - без зайвих вагань рекомендую всім!


Срібний реліз (на рейтинг впливає 50% завантаженого)
 Трекер:    Зареєстрований   

Завантажити / скачати фільм українською



відео для новачків



 Зареєстрований:   2013-03-09 12:07
 Розмір:   4.26 GB 
 Оцінка фільму:   9.7/10 (Голосів: 21)
   
tower 
Новенький


З нами з: 25.04.13
Востаннє: 06.11.15
Повідомлень: 1

2013-07-23 23:07  
дайте швидкосты
DеLight 
Відео Гуртом - фільмокрай
Відео Гуртом - фільмокрай


З нами з: 24.08.11
Востаннє: 17.11.16
Повідомлень: 664

2013-07-23 23:37  
tower
Ви знаєте що таке "рейтинг"? Без нього погані у Вас справи http://toloka.to/t35477

mangeke 
Відео Гуртом - підтримка та поширення
Відео Гуртом - підтримка та поширення


З нами з: 28.02.12
Востаннє: 01.12.16
Повідомлень: 13

2015-06-20 14:43  
Навіщо релізити щось, щоб потім кинути напризволяще? Коли я не можу скачати "Червоного дракона", десь у світі сумує один Ганібал Лектор...
Robar III 
Попереджень: 2
Попереджень: 2 


З нами з: 18.08.11
Востаннє: 11.11.16
Повідомлень: 1932

2015-06-20 15:54  
mangeke, Останній раз роздавалося vchslv13 (2015-06-20)
як бачите, ніхто реліз не кинув, а роздають по можливості. Тому без паніки, просто почекайте

Ваш часовий пояс: GMT + 2 Години

Нова тема   Відповісти