Завантажити та скачати торренти українською


Чого хочуть жінки / What Women Want (2000) 720p 4xUkr/Eng | Sub Ukr/Eng

Нові коментарі

Нова тема   Відповісти
Автор Повідомлення
Віктор 
Відео Гуртом - субтитрування
Відео Гуртом - субтитрування


З нами з: 09.01.10
Востаннє: 03.12.16
Повідомлень: 8663

2013-03-09 01:34  
Чого хочуть жінки / What Women Want (2000) 720p 4xUkr/Eng | Sub Ukr/Eng




«He has the power to hear everything women are thinking. Finally... a man is listening.


Жанр: комедія, мелодрама, фантастика
Країна: США



Кіностудія / кінокомпанія: Paramount Pictures , Icon Entertainment International , Wind Dancer Productions
Режисер: Ненсі Меєрс (Nancy Meyers)
Композитор: Алан Сільвестрі (Alan Silvestri)
Актори: Мел Ґібсон (Mel Gibson), Гелен Гант (Helen Hunt), Маріса Томей (Marisa Tomei), Алан Алда (Alan Alda), Ешлі Джонсон (Ashley Johnson), Марк Фюрштейн (Mark Feuerstein), Лоурен Голлі (Lauren Holly), Дельта Бурк (Delta Burke), Валері Перрін (Valerie Perrine), Джуді Ґрір (Judy Greer) та інші.

Сюжет:
Співробітник рекламного аґентства Нік Маршалл очікує на підвищення по службі, але в останню мить начальство змінює плани. Аґентство втрачає позиції на ринку реклами і замість Ніка призначають Дарсі МакКваєр, яка в змозі перебороти нехорошу тенденцію. Невдоволений Нік не проти довести, що і він би чудово з усім упорався, і така можливість у нього з’являється. Електричний розряд, що потрапив у героя фільму, наділяє його унікальною здатністю: відтепер він чує все, про що думають жінки. Завдяки такому подарунку долі, Нік тепер може не тільки створювати рекламу, близьку і зрозумілу кожній жінці, але і з легкістю знайти підхід до неприступної продавщиці з кав’ярні, а також налагодити врешті-решт контакт зі своєю 15-річною донькою.
Номінації і цікаві факти

Золотий ґлобус, 2001 рік
Номінації (1):
Найкраща чоловіча роль (комедія або мюзикл) (Мел Ґібсон)

[center]Сатурн, 2001 рік
Номінації (1):
Найкращий фентезі-фільм

Цікаві факти про фільм

• У сцені, де Нік презентує свій ролик представницям Nike, знялися справжні співробітниці фірми.
• Фінальна сцена фільму, в якій Нік приходить додому до Дарсі, практично в точності повторює аналогічний епізод з «Краще не буває», в якому також головну жіночу роль грала Гелен Гант.
• Бюджет - $70 000 000
MediaInfo

Код:
General
Unique ID                        : 199615157329967859827366437242954114073 (0x962C7B1B507FCE7AB0DB4D0B74ACE419)
Complete name                    : D:\HURTOM\What Women Want (2000) [4xUkr, Eng] 720p [Hurtom].mkv
Format                           : Matroska
Format version                   : Version 2
File size                        : 6.16 GiB
Duration                         : 2h 6mn
Overall bit rate                 : 6 959 Kbps
Movie name                       : What Women Want (2000) [4xUkr, Eng] 720p [Hurtom]
Encoded date                     : UTC 2013-03-14 11:32:32
Writing application              : mkvmerge v5.0.1 ('Es ist Sommer') built on Oct  9 2011 11:55:43
Writing library                  : libebml v1.2.2 + libmatroska v1.3.0

Video
ID                               : 1
Format                           : AVC
Format/Info                      : Advanced Video Codec
Format profile                   : [email protected]
Format settings, CABAC           : Yes
Format settings, ReFrames        : 6 frames
Format settings, GOP             : N=1
Codec ID                         : V_MPEG4/ISO/AVC
Duration                         : 2h 6mn
Bit rate                         : 4 300 Kbps
Width                            : 1 280 pixels
Height                           : 720 pixels
Display aspect ratio             : 16:9
Frame rate                       : 23.976 fps
Color space                      : YUV
Chroma subsampling               : 4:2:0
Bit depth                        : 8 bits
Scan type                        : Progressive
Bits/(Pixel*Frame)               : 0.195
Stream size                      : 3.68 GiB (60%)
Title                            : What Women Want (2000) [4xUkr, Eng] 720p [Hurtom]
Writing library                  : core 66 r1086M 39a2796
Encoding settings                : cabac=1 / ref=6 / deblock=1:-3:-3 / analyse=0x3:0x133 / me=umh / subme=9 / psy_rd=0.8:0.0 / mixed_ref=1 / me_range=32 / chroma_me=1 / trellis=0 / 8x8dct=1 / cqm=2 / deadzone=6,4 / chroma_qp_offset=-2 / threads=6 / nr=0 / decimate=1 / mbaff=0 / bframes=16 / b_pyramid=0 / b_adapt=1 / b_bias=0 / direct=1 / wpredb=1 / keyint=250 / keyint_min=25 / scenecut=40(pre) / rc=2pass / bitrate=4300 / ratetol=1.0 / qcomp=0.60 / qpmin=10 / qpmax=51 / qpstep=4 / cplxblur=20.0 / qblur=0.5 / ip_ratio=1.40 / pb_ratio=1.30 / aq=1:0.80
Language                         : English
Default                          : Yes
Forced                           : No

Audio #1
ID                               : 2
Format                           : AC-3
Format/Info                      : Audio Coding 3
Mode extension                   : CM (complete main)
Codec ID                         : A_AC3
Duration                         : 2h 6mn
Bit rate mode                    : Constant
Bit rate                         : 448 Kbps
Channel(s)                       : 6 channels
Channel positions                : Front: L C R, Side: L R, LFE
Sampling rate                    : 48.0 KHz
Bit depth                        : 16 bits
Compression mode                 : Lossy
Stream size                      : 406 MiB (6%)
Title                            : 5.1 @ 448 kbps - двоголосий закадровий | «Студія 1+1»
Language                         : Ukrainian
Default                          : Yes
Forced                           : No

Audio #2
ID                               : 3
Format                           : AC-3
Format/Info                      : Audio Coding 3
Mode extension                   : CM (complete main)
Codec ID                         : A_AC3
Duration                         : 2h 6mn
Bit rate mode                    : Constant
Bit rate                         : 448 Kbps
Channel(s)                       : 6 channels
Channel positions                : Front: L C R, Side: L R, LFE
Sampling rate                    : 48.0 KHz
Bit depth                        : 16 bits
Compression mode                 : Lossy
Stream size                      : 406 MiB (6%)
Title                            : 5.1 @ 448 kbps - двоголосий закадровий запис з Нового Каналу
Language                         : Ukrainian
Default                          : No
Forced                           : No

Audio #3
ID                               : 4
Format                           : AC-3
Format/Info                      : Audio Coding 3
Mode extension                   : CM (complete main)
Codec ID                         : A_AC3
Duration                         : 2h 6mn
Bit rate mode                    : Constant
Bit rate                         : 448 Kbps
Channel(s)                       : 6 channels
Channel positions                : Front: L C R, Side: L R, LFE
Sampling rate                    : 48.0 KHz
Bit depth                        : 16 bits
Compression mode                 : Lossy
Stream size                      : 406 MiB (6%)
Title                            : 5.1 @ 448 kbps - багатоголосий закадровий запис з ICTV
Language                         : Ukrainian
Default                          : No
Forced                           : No

Audio #4
ID                               : 5
Format                           : AC-3
Format/Info                      : Audio Coding 3
Mode extension                   : CM (complete main)
Codec ID                         : A_AC3
Duration                         : 2h 6mn
Bit rate mode                    : Constant
Bit rate                         : 448 Kbps
Channel(s)                       : 6 channels
Channel positions                : Front: L C R, Side: L R, LFE
Sampling rate                    : 48.0 KHz
Bit depth                        : 16 bits
Compression mode                 : Lossy
Stream size                      : 406 MiB (6%)
Title                            : 5.1 @ 448 kbps - багатоголосий закадровий Студія «Мова»
Language                         : Ukrainian
Default                          : No
Forced                           : No

Audio #5
ID                               : 6
Format                           : AC-3
Format/Info                      : Audio Coding 3
Mode extension                   : CM (complete main)
Codec ID                         : A_AC3
Duration                         : 2h 6mn
Bit rate mode                    : Constant
Bit rate                         : 640 Kbps
Channel(s)                       : 6 channels
Channel positions                : Front: L C R, Side: L R, LFE
Sampling rate                    : 48.0 KHz
Bit depth                        : 16 bits
Compression mode                 : Lossy
Stream size                      : 580 MiB (9%)
Title                            : 5.1 @ 640 kbps
Language                         : English
Default                          : No
Forced                           : No

Audio #6
ID                               : 7
Format                           : AC-3
Format/Info                      : Audio Coding 3
Mode extension                   : CM (complete main)
Codec ID                         : A_AC3
Duration                         : 2h 6mn
Bit rate mode                    : Constant
Bit rate                         : 224 Kbps
Channel(s)                       : 2 channels
Channel positions                : Front: L R
Sampling rate                    : 48.0 KHz
Bit depth                        : 16 bits
Compression mode                 : Lossy
Stream size                      : 203 MiB (3%)
Title                            : 2.0 @ 224 kbps - Коментарі Ненсі Меєрс
Language                         : English
Default                          : No
Forced                           : No

Text #1
ID                               : 8
Format                           : UTF-8
Codec ID                         : S_TEXT/UTF8
Codec ID/Info                    : UTF-8 Plain Text
Title                            : Субтитри набрані з перекладу«Студії 1+1» - w2958l
Language                         : Ukrainian
Default                          : No
Forced                           : No

Text #2
ID                               : 9
Format                           : UTF-8
Codec ID                         : S_TEXT/UTF8
Codec ID/Info                    : UTF-8 Plain Text
Title                            : SDH
Language                         : English
Default                          : No
Forced                           : No
Тривалість: 02:06:39
Якість: 720p
Відео:
кодек:
розмір кадру: 1280x720
бітрейт: 4300 кб/с

Аудіо # 1: Найкращий переклад тому і перший
мова: українська
переклад: двоголосий закадровий Студія 1+1 | Ролі озвучили: Олександр Завальський і Наталя Ярошенко
кодек: 5.1
бітрейт: 448 кб/с

Аудіо # 2:
мова: українська
переклад: двоголосий закадровий запис з нового каналу | Ролі озвучили: Євген Пашин і Ольга Радчук
кодек: 5.1
бітрейт: 448 кб/с

Аудіо # 3:
мова: українська
переклад: багатоголосий закадровий запис з ICTV | Ролі озвучили: Юрій Гребельник, Володимир Терещук, Наталя Задніпровська і ще один жіночий
кодек: 5.1
бітрейт: 448 кб/с

Аудіо # 4:
мова: українська
переклад: багатоголосий закадровий Студія «Мова» | Ролі озвучили: Микола Говор, Михайло Кришталь і один чи два жіночих
кодек: 5.1
бітрейт: 448 кб/с

Аудіо # 5:
мова: англійська
переклад: ориґінал
кодек: 5.1
бітрейт: 640 кб/с

Аудіо # 6:
мова: англійська (коментарі)
кодек: 2.0
бітрейт: 224 кб/с

Субтитри # 1:
мова: українська
тип: програмні (м’які)
формат: *.srt
примітка: субтитри набрані з перекладу«Студії 1+1» - w2958l

Субтитри # 2:
мова: англійська (SDH)
тип: програмні (м’які)
формат: *.srt

Скріншоти:





За синхронізацію українських доріжок подяка _oles,
за запис звуку з ТБ подяки Merdiff, MAKAPOHHIK, karvai


Джерело:
Особиста оцінка: 8


Срібний реліз (на рейтинг впливає 50% завантаженого)
 Трекер:    Зареєстрований   

Завантажити / скачати фільм українською



відео для новачків



 Зареєстрований:   2013-03-14 14:01
 Розмір:   6.16 GB 
 Оцінка фільму:   9.4/10 (Голосів: 15)
   
Інші релізи
Ваш часовий пояс: GMT + 2 Години

Нова тема   Відповісти