Завантажити та скачати торренти українською


Там, де закінчується стежка / Where the Trail Ends (2012) 720p Eng | sub Ukr/Eng

Нові коментарі

Нова тема   Відповісти
Останній раз роздавалося andiua (2016-12-07)

Увійдіть, щоб проголосувати
Автор Повідомлення
pohgejib 
VIP


З нами з: 06.06.08
Востаннє: 26.11.16
Повідомлень: 362

2013-03-08 16:03  
Там, де закінчується стежка / Where the Trail Ends (2012) 720p Eng | sub Ukr/Eng



Жанр: спорт, документальний, пригодницький
Країна: США



Кіностудія / кінокомпанія: Freeride Entertainment, Red Bull Media House
Режисер: Джеремі Грант / Jeremy Grant
Актори: Даррен Берреклот / Darren Berrecloth, Кемерон Зінк / Cameron Zink, Курт Сордж / Kurtis Sorge, Джеймс Дорфлінг / James Doerfling

Сюжет:
"Там, де закінчується стежка..." - Це фільм оповідає про кращих фрірайд байкерів світу. Даррен Берреклот, Кемерон Зінк, Курт Сордж, Джеймс Дорфлінг і ще півдюжини інших долають складні ділянки природного ландшафту, про те, як вони шукають нові не випробувані стежки по всьому світу, і будують основу для майбутнього гірського фрірайду.
Він показує боротьбу між людиною і матір'ю - природою, відбиту за допомогою колоритних персонажів, якими постали хлопці. Ця історія стала можливо найбільш вражаючим, прогресивним і амбітним катанням, яке коли-небудь намагалися втілити в життя і, безумовно, його вдалося перетворити в дуже захоплюючу пригоду.


Тривалість: 01:21:49
Якість: 720p
Відео:
кодек:
розмір кадру: 1280 х 720
бітрейт: 6358 кб/с
MediaInfo
D:\j\Where.the.Trail.Ends.2012.720p.subs.Ukr.Eng.hurtom.com.mkv
General
Unique ID : 218112353489780227668158608791161964158 (0xA416E949D242E98493FC01781446867E)
Complete name : D:\j\Where.the.Trail.Ends.2012.720p.subs.Ukr.Eng.hurtom.com.mkv
Format : Matroska
Format version : Version 2
File size : 4.08 GiB
Duration : 1h 21mn
Overall bit rate : 7 140 Kbps
Movie name : Where.the.Trail.Ends.2012.720p.Bluray.-ESiR
Encoded date : UTC 2013-03-08 13:52:39
Writing application : mkvmerge v4.7.0 ('Just Like You Imagined') ç³áðàíî Apr 21 2011 01:13:14
Writing library : libebml v1.2.0 + libmatroska v1.1.0
Video #1
ID : 1
Format : AVC
Format/Info : Advanced Video Codec
Format profile : [email protected]
Format settings, CABAC : Yes
Format settings, ReFrames : 9 frames
Codec ID : V_MPEG4/ISO/AVC
Duration : 1h 21mn
Bit rate : 6 358 Kbps
Width : 1 280 pixels
Height : 720 pixels
Display aspect ratio : 16:9
Frame rate mode : Constant
Frame rate : 23.976 fps
Color space : YUV
Chroma subsampling : 4:2:0
Bit depth : 8 bits
Scan type : Progressive
Bits/(Pixel*Frame) : 0.288
Stream size : 3.63 GiB (89%)
Title : Where the Trail Ends...
Writing library : core 125 r2200 999b753
Encoding settings : ??????????????????????????????????????????????????????????????????????????????????????????????????????????????????????????????????????????????????????????????????????????????????????????????????????????????????????????????????????????????????????????????????????????????????????????????????????????????????????????????????????????????????????????????????????????????????????????????????????????????????????????????????????????????????????????????????????????????????????????????????????????????????????????????????????????????????????????????????????????????????????????????????????????
Language : English
Default : Yes
Forced : No
Audio #2
ID : 2
Format : AC-3
Format/Info : Audio Coding 3
Mode extension : CM (complete main)
Format settings, Endianness : Big
Codec ID : A_AC3
Duration : 1h 21mn
Bit rate mode : Constant
Bit rate : 640 Kbps
Channel(s) : 6 channels
Channel positions : Front: L C R, Side: L R, LFE
Sampling rate : 48.0 KHz
Bit depth : 16 bits
Compression mode : Lossy
Stream size : 375 MiB (9%)
Title : 5.1 @ 640 kbps
Language : English
Default : No
Forced : No
Text #3
ID : 3
Format : UTF-8
Codec ID : S_TEXT/UTF8
Codec ID/Info : UTF-8 Plain Text
Title : Українська (Hurtom.com)
Language : Ukrainian
Default : Yes
Forced : No
Text #4
ID : 4
Format : ASS
Codec ID : S_TEXT/ASS
Codec ID/Info : Advanced Sub Station Alpha
Compression mode : Lossless
Language : English
Default : No
Forced : No
Аудіо:
мова: англійська
переклад: оригінал
кодек: 5.1
бітрейт: 640 кб/с

Субтитри:
мова: українська (pohgejib)
тип: програмні (м'які)
формат: *.srt

Субтитри:
мова: англійська
тип: програмні (м'які)
формат: *.ass

Скріншоти


Особиста оцінка: 10/10


 Трекер:    Зареєстрований   

Завантажити / скачати фільм українською



відео для новачків



 Зареєстрований:   2013-03-08 16:03
 Розмір:   4.08 GB 
 Оцінка фільму:   9.8/10 (Голосів: 8)
   
pyatachok 
Координатор літератури


З нами з: 30.01.10
Востаннє: 07.12.16
Повідомлень: 1337

2013-03-08 16:23  
pohgejib написано:
Актори: Darren Berrecloth, Cameron Zink, Kurtis Sorge, James Doerfling, Andreu Lacondegu, Paul Basagoitia, Robbie Bourdon, Kyle Strait, Cam McCaul, Tyler Mccaul, Mike Kinrade, Garret Buehler.

Продублюйте українською
pohgejib написано:
subs Ukr, Eng

sub Ukr/Eng
pohgejib написано:
Якість:

720p

З якої мови переклад?

bot 
робот


З нами з: 30.09.07
Востаннє: 26.05.05
Повідомлень: 16024

2013-03-08 16:24  
Тему перенесено з Фільми до форуму Фільми в HD


pyatachok

pohgejib 
VIP


З нами з: 06.06.08
Востаннє: 26.11.16
Повідомлень: 362

2013-03-08 17:01  
pyatachok написано:
З якої мови переклад?

російська

wrongman 
Свій


З нами з: 11.11.08
Востаннє: 05.12.16
Повідомлень: 137

2013-03-09 10:54  
"Я побив кілька рекордів і багато костей"

Не костей, а кісток

Субтитри треба як слід вичитати і відредагувати!!

pohgejib 
VIP


З нами з: 06.06.08
Востаннє: 26.11.16
Повідомлень: 362

2013-03-09 20:02  
wrongman написано:
Субтитри треба як слід вичитати і відредагувати!!

знаю що косяки залишилися. на редагування витратив і без того багато часу. хай там як але хочеться озвучки.

Ваш часовий пояс: GMT + 2 Години

Нова тема   Відповісти