Завантажити та скачати торренти українською


Оксана Білозір, Віктор Морозов - Оксана Білозір/Віктор Морозов (1989) [FLAC, TapeRip] | Folk / Pop

Нові коментарі

Нова тема   Відповісти
Останній раз роздавалося civ (2016-12-04)
Автор Повідомлення
Gienek_Lwow 
VIP


З нами з: 28.09.10
Востаннє: 04.12.16
Повідомлень: 540

2013-03-07 23:04  
Оксана Білозір, Віктор Морозов - Оксана Білозір/Віктор Морозов (1989) [FLAC, TapeRip] | Folk / Bard

Оксана Білозір, Віктор Морозов - Оксана Білозір/Віктор Морозов (1989) [FLAC, TapeRip] | Folk / Pop


Стиль: Folk, Bard, Pop
Країна, місто: Україна, Львів
Видавець: "Кобза" #КОВ С011
Виконавці:
О. Білозір - солістка групи "Ватра" м. Львова
В. Морозов - бард ансамблю "Не журись"

Пісні:
    Перша сторона:


    01. А в тому саду
    02. Під облачком
    03. Дунаю, Дунаю
    04. За гору сонце загорає
    05. Колискова
    06. Гиля-гиля сірі гуси
    07. Ой на горі два дубочки
    08. Ой там на горі
    09. Спала зіронька
    10. Ягіл-ягілочка
    11. Ой хмариться туманиться
    12. Чи дома дома
    13. Чого козаче сумний
    14. Ідуть воли
    15. Ой там у Львові

    Тривалість: 00:45:55
    Друга сторона:


    01. А ви мене поховайте
    02. Стрілецькі могили
    03. На ринку, романс
    04. Трубач
    05. Історія
    06. Напучування сільського вчителя
    07. Львівське пиво
    08. Чорна кава
    09. Зона
    10. Пливе кача
    11. Многая літа

    Тривалість: 00:46:40

Тривалість: 01:32:35
Мова: українська
Аудіо-кодек: FLAC
Бітрейт: 624 кб/с
Джерело: Касета з колекції civ, ріп (цифрування) Gienek_Lwow
Додаткова інформація:
01. А в тому саду (спектр); 01. А ви мене поховайте (спектр)
Log Audiochecker

Код:
AUDIOCHECKER v2.0 beta (build 457) - by Dester - [email protected]
~~~~~~~~~~~~~~~~~~~~~~~~~~~~~~~~~~
-=== DO NOT EDIT THIS FILE! ===-

Path: ...\Перша Сторона (А)

01 -=- 01. А в тому саду.flac -=- CDDA (100%)
02 -=- 02. Під облачком.flac -=- CDDA (100%)
03 -=- 03. Дунаю, Дунаю.flac -=- CDDA (100%)
04 -=- 04. За гору сонце загорає.flac -=- CDDA (100%)
05 -=- 05. Колискова.flac -=- CDDA (100%)
06 -=- 06. Гиля-гиля сірі гуси.flac -=- CDDA (100%)
07 -=- 07. Ой на горі два дубочки.flac -=- CDDA (100%)
08 -=- 08. Ой там на горі.flac -=- CDDA (100%)
09 -=- 09. Спала зіронька.flac -=- CDDA (100%)
10 -=- 10. Ягіл-ягілочка.flac -=- CDDA (100%)
11 -=- 11. Ой хмариться туманиться.flac -=- CDDA (100%)
12 -=- 12. Чи дома дома.flac -=- CDDA (99%)
13 -=- 13. Чого козаче сумний.flac -=- CDDA (100%)
14 -=- 14. Ідуть воли.flac -=- CDDA (100%)
15 -=- 15. Ой там у Львові.flac -=- CDDA (100%)

Summary 99,93% CDDA

69953588

Код:
AUDIOCHECKER v2.0 beta (build 457) - by Dester - [email protected]
~~~~~~~~~~~~~~~~~~~~~~~~~~~~~~~~~~
-=== DO NOT EDIT THIS FILE! ===-

Path: ...\Друга Сторона (В)

01 -=- 01. А ви мене поховайте.flac -=- CDDA (100%)
02 -=- 02. Стрілецькі могили.flac -=- CDDA (100%)
03 -=- 03. На ринку, романс.flac -=- CDDA (100%)
04 -=- 04. Трубач.flac -=- CDDA (100%)
05 -=- 05. Історія.flac -=- CDDA (99%)
06 -=- 06. Напучування сільського вчителя.flac -=- CDDA (100%)
07 -=- 07. Львівське пиво.flac -=- CDDA (99%)
08 -=- 08. Чорна кава.flac -=- CDDA (100%)
09 -=- 09. Зона.flac -=- CDDA (100%)
10 -=- 10. Пливе кача.flac -=- CDDA (100%)
11 -=- 11. Многая літа.flac -=- CDDA (100%)

Summary 99,82% CDDA

112935476
CUE для wave image
Код:
REM GENRE Bard
REM DATE 1989
REM COMMENT Касета з колекції civ, ріп (цифрування) Gienek_Lwow
PERFORMER "Оксана Білозір, Віктор Морозов"
TITLE "Оксана Білозір/Віктор Морозов (lable Кобза # КОВ С011)"
FILE "Перша сторона.wav" WAVE
  TRACK 01 AUDIO
    TITLE "А втому саду"
    INDEX 01 00:00:00
  TRACK 02 AUDIO
    TITLE "Під облачком"
    INDEX 01 02:28:24
  TRACK 03 AUDIO
    TITLE "Дунаю, Дунаю"
    INDEX 01 06:36:55
  TRACK 04 AUDIO
    TITLE "За гору сонце загорає"
    INDEX 01 09:44:30
  TRACK 05 AUDIO
    TITLE "Колискова"
    INDEX 01 12:29:15
  TRACK 06 AUDIO
    TITLE "Гиля-гиля сірі гуси"
    INDEX 01 15:35:64
  TRACK 07 AUDIO
    TITLE "Ой на горі два дубочки"
    INDEX 01 19:20:18
  TRACK 08 AUDIO
    TITLE "Ой там на горі"
    INDEX 01 21:36:00
  TRACK 09 AUDIO
    TITLE "Спала зіронька"
    INDEX 01 24:08:00
  TRACK 10 AUDIO
    TITLE "Ягіл-ягілочка"
    INDEX 01 28:12:15
  TRACK 11 AUDIO
    TITLE "Ой хмариться туманиться"
    INDEX 01 30:01:54
  TRACK 12 AUDIO
    TITLE "Чи дома дома"
    INDEX 01 33:10:53
  TRACK 13 AUDIO
    TITLE "Чого козаче сумний"
    INDEX 01 34:54:41
  TRACK 14 AUDIO
    TITLE "Ідуть воли"
    INDEX 01 39:42:33
  TRACK 15 AUDIO
    TITLE "Ой там у Львові"
    INDEX 01 43:14:00

Код:
REM GENRE Bard
REM DATE 1989
REM COMMENT Касета з колекції civ, ріп (цифрування) Gienek_Lwow
PERFORMER "Оксана Білозір, Віктор Морозов"
TITLE "Оксана Білозір/Віктор Морозов (lable Кобза # КОВ С011)"
FILE "Друга Сторона.wav" WAVE
  TRACK 01 AUDIO
    TITLE "А ви мене поховайте"
    INDEX 01 00:00:00
  TRACK 02 AUDIO
    TITLE "Стрілецькі могили"
    INDEX 01 02:45:30
  TRACK 03 AUDIO
    TITLE "На ринку, романс"
    INDEX 01 07:38:00
  TRACK 04 AUDIO
    TITLE "Трубач"
    INDEX 01 11:32:56
  TRACK 05 AUDIO
    TITLE "Історія"
    INDEX 01 15:59:23
  TRACK 06 AUDIO
    TITLE "Напучування сільського вчителя"
    INDEX 01 21:03:00
  TRACK 07 AUDIO
    TITLE "Львівське пиво"
    INDEX 01 24:22:34
  TRACK 08 AUDIO
    TITLE "Чорна кава"
    INDEX 01 26:44:00
  TRACK 09 AUDIO
    TITLE "Зона"
    INDEX 01 30:29:64
  TRACK 10 AUDIO
    TITLE "Пливе кача"
    INDEX 01 37:32:17
  TRACK 11 AUDIO
    TITLE "Многая літа"
    INDEX 01 42:04:00
Мінімальна обробка


Срібний реліз (на рейтинг впливає 50% завантаженого)
 Трекер:    Зареєстрований   

Завантажити / скачати українську музику



відео для новачків



 Зареєстрований:   2013-03-07 23:04
 Розмір:   461 MB 
 Оцінка музики:   10/10 (Голосів: 8)
   
Gienek_Lwow 
VIP


З нами з: 28.09.10
Востаннє: 04.12.16
Повідомлень: 540

2013-03-07 23:40  
Додав Audiochecker, та на всяк випадок куй для обох сторін, може згодиться.
Форкуш 
VIP


З нами з: 03.02.10
Востаннє: 04.12.16
Повідомлень: 1535

2013-03-08 07:20  
320 не зробите?
Gienek_Lwow 
VIP


З нами з: 28.09.10
Востаннє: 04.12.16
Повідомлень: 540

2013-03-08 07:35  
Форкуш
Ні, нехай спробують інші

ярий тверезенник 
VIP


З нами з: 29.01.12
Востаннє: 04.12.16
Повідомлень: 1592

2013-03-13 10:09  
Тут FLAC - в одному файлі чи потреково? (для 320 потрібно ще й різати щоб відокремити треки?).
ssTAss 
Модератор музики


З нами з: 05.07.08
Востаннє: 03.12.16
Повідомлень: 10932

2013-03-13 12:03  
71vrizhiy88 написано:
Тут FLAC - в одному файлі чи потреково?

відкрити спойлер "список файлів завантаження" і подивитись релігія не дозволяє?
71vrizhiy88 написано:
для 320 потрібно ще й різати щоб відокремити треки?

навіть якщо і було б "одним файлом", то для того викладають куе
фубар все сам зробить... він таких питань не задає Rolleyes (2)

Форкуш 
VIP


З нами з: 03.02.10
Востаннє: 04.12.16
Повідомлень: 1535

2013-03-13 12:25  
Gienek_Lwow написано:
Ні, нехай спробують інші

Хижо, що кожен має зробити собі окремо, ане щоб хтось один зробив і можна було слухати на різних носіях і в машині і в магнітофоні на дисках... Sad (1)

ssTAss 
Модератор музики


З нами з: 05.07.08
Востаннє: 03.12.16
Повідомлень: 10932

2013-03-13 13:23  
Форкуш написано:
Хижо, що кожен має зробити собі окремо,

Форкуш'е, Ви не правильно зрозуміли. Релізер просто не має змоги тримати на вінчестері різні версії альбому, тому пропонує, щоб хтось інший зробив реліз в мр3 на Толоці.

Ваш часовий пояс: GMT + 2 Години

Нова тема   Відповісти