Завантажити та скачати торренти українською


Ігри патріотів / Patriot Games (1992) BDRiр 1080p Ukr/Eng | Sub Ukr/Eng

Нові коментарі

Нова тема   Відповісти
Автор Повідомлення
Anonymous 







2013-03-07 19:59  
Ігри патріотів / Patriot Games (1992) BDRiр 1080p Ukr/Eng | Sub Ukr/Eng

Ігри патріотів / Patriot Games (1992) BDRiр 1080p Ukr/Eng | Sub Ukr/Eng


Жанр: бойовик, трилер, драма, кримінал
Країна: США



Кіностудія / кінокомпанія: Mace Neufeld Productions, Paramount Pictures
Режисер: Філіп Нойс (Phillip Noyce)
Актори: Га́ррісон Форд / Harrison Ford, Енн Арчер / Anne Archer, Патрік Бергін / Patrick Bergin, Шон Бін / Sean Bean, Тора Берч / Thora Birch, Джеймс Фокс / James Fox, Семюель Л. Джексон / Samuel L. Jackson, Поллі Вокер / Polly Walker, Дж. Е. Фрімен / J.E. Freeman, Джеймс Ерл Джонс / James Earl Jones та інші

Сюжет:
Колишній співробітник ЦРУ, а нині професор військово-морської академії США Джек Райн, знаходячись в Лондоні з доповіддю, випадково стає свідком терористичного акту Ірландської республіканської армії проти королівської сім'ї. Райн запобігає трагедії, але ірландські терористи загрожують помститися. Небезпечна загроза нависає над Райном, його дружиною і дочкою...


рейтинг MPAA: R - дітям до 17 років обов'язкова присутність батьків або дорослого опікуна
Вікова категорія: 16+

Тривалість: 01:56:44
Якість: 1080p
Відео:
кодек:
розмір кадру: 1920x832
бітрейт: 8238 кб/с

Аудіо # 1:
мова: українська
переклад: багатоголосий закадровий
кодек: 5.1
бітрейт: 384 кб/с

Аудіо # 2:
мова: англійська
переклад: оригінал
кодек: 5.1
бітрейт: 640 кб/с

Субтитри # 1:
мова: українська
тип: програмні (м'які)
формат: *.srt

Субтитри # 2:
мова: англійська
тип: програмні (м'які)
формат: *.srt

Збережено оригінальні розділи, як на Blu-ray.
MediaInfo
General
Unique ID : 173165716417253484670831157813213076926 (0x824680FCE6079E4AAAB89264A4131DBE)
Complete name : Patriot.Games.1992..1080p.Ukr.Eng.mkv
Format : Matroska
Format version : Version 4 / Version 2
File size : 7.55 GiB
Duration : 1h 56mn
Overall bit rate : 9 260 Kbps
Movie name : Ігри патріотів / Patriot Games (1992)
Encoded date : UTC 2013-03-08 17:02:49
Writing application : mkvmerge v6.1.0 ('Old Devil') built on Mar 2 2013 14:32:37
Writing library : libebml v1.3.0 + libmatroska v1.4.0

Video
ID : 1
Format : AVC
Format/Info : Advanced Video Codec
Format profile : [email protected]
Format settings, CABAC : Yes
Format settings, ReFrames : 4 frames
Codec ID : V_MPEG4/ISO/AVC
Duration : 1h 56mn
Bit rate : 8 238 Kbps
Width : 1 920 pixels
Height : 832 pixels
Display aspect ratio : 2.35:1
Frame rate mode : Constant
Frame rate : 23.976 fps
Color space : YUV
Chroma subsampling : 4:2:0
Bit depth : 8 bits
Scan type : Progressive
Bits/(Pixel*Frame) : 0.215
Stream size : 6.57 GiB (87%)
Title : Rip by Boriy (Ігри патріотів / Patriot Games / Игры патриотов)
Writing library : core 130 r2273 b3065e6
Encoding settings : cabac=1 / ref=4 / deblock=1:0:0 / analyse=0x3:0x113 / me=umh / subme=10 / psy=1 / psy_rd=1.00:0.10 / mixed_ref=1 / me_range=32 / chroma_me=1 / trellis=2 / 8x8dct=1 / cqm=0 / deadzone=21,11 / fast_pskip=0 / chroma_qp_offset=-2 / threads=12 / lookahead_threads=1 / sliced_threads=0 / nr=0 / decimate=0 / interlaced=0 / bluray_compat=0 / constrained_intra=0 / bframes=5 / b_pyramid=2 / b_adapt=2 / b_bias=0 / direct=3 / weightb=1 / open_gop=0 / weightp=2 / keyint=240 / keyint_min=23 / scenecut=40 / intra_refresh=0 / rc=2pass / mbtree=0 / bitrate=8238 / ratetol=1.0 / qcomp=0.60 / qpmin=0 / qpmax=69 / qpstep=4 / cplxblur=20.0 / qblur=0.5 / ip_ratio=1.40 / pb_ratio=1.30 / aq=1:0.80
Language : English
Default : Yes
Forced : No

Audio #1
ID : 2
Format : AC-3
Format/Info : Audio Coding 3
Mode extension : CM (complete main)
Format settings, Endianness : Big
Codec ID : A_AC3
Duration : 1h 56mn
Bit rate mode : Constant
Bit rate : 384 Kbps
Channel(s) : 6 channels
Channel positions : Front: L C R, Side: L R, LFE
Sampling rate : 48.0 KHz
Bit depth : 16 bits
Compression mode : Lossy
Stream size : 321 MiB (4%)
Title : MVO ICTV [Hurtom-Romario_O]
Language : Ukrainian
Default : Yes
Forced : No

Audio #2
ID : 3
Format : AC-3
Format/Info : Audio Coding 3
Mode extension : CM (complete main)
Format settings, Endianness : Big
Codec ID : A_AC3
Duration : 1h 56mn
Bit rate mode : Constant
Bit rate : 640 Kbps
Channel(s) : 6 channels
Channel positions : Front: L C R, Side: L R, LFE
Sampling rate : 48.0 KHz
Bit depth : 16 bits
Compression mode : Lossy
Stream size : 535 MiB (7%)
Title : original
Language : English
Default : No
Forced : No

Text #1
ID : 4
Format : UTF-8
Codec ID : S_TEXT/UTF8
Codec ID/Info : UTF-8 Plain Text
Title : Ukr full [igor911-Hurtom]
Language : Ukrainian
Default : No
Forced : No

Text #2
ID : 5
Format : UTF-8
Codec ID : S_TEXT/UTF8
Codec ID/Info : UTF-8 Plain Text
Title : Eng full
Language : English
Default : No
Forced : No

Menu
00:00:00.000 : :Chapter 1
00:02:36.447 : :Chapter 2
00:05:47.722 : :Chapter 3
00:11:47.039 : :Chapter 4
00:13:28.557 : :Chapter 5
00:19:57.196 : :Chapter 6
00:24:59.873 : :Chapter 7
00:27:54.297 : :Chapter 8
00:33:56.492 : :Chapter 9
00:38:00.736 : :Chapter 10
00:40:04.276 : :Chapter 11
00:51:17.324 : :Chapter 12
00:57:09.342 : :Chapter 13
01:04:10.096 : :Chapter 14
01:10:52.081 : :Chapter 15
01:15:46.833 : :Chapter 16
01:19:18.128 : :Chapter 17
01:27:10.433 : :Chapter 18
01:31:42.663 : :Chapter 19
01:44:04.905 : :Chapter 20
01:51:14.501 : :Chapter 21
01:52:45.175 : :Chapter 22


Джерело: ріп відео, оригінальні доріжка та субтитри - boriy (рутор); українська доріжка - Romario_O; українські субтитри - власне розпізнавання та обробка; постер - TPEM (всі - Гуртом)

08.03.2013 20:15 торрент оновлено - додав українські субтитри.
Прохання видалити старий торрент і файл та завантажити новий.


Срібний реліз (на рейтинг впливає 50% завантаженого)
 Трекер:    Зареєстрований   

Завантажити / скачати фільм українською



відео для новачків



 Зареєстрований:   2013-03-08 20:14
 Розмір:   7.55 GB 
 Оцінка фільму:   4.6/10 (Голосів: 18)
   
Інші релізи
Anonymous 







2013-03-07 20:02  
НЕ ТІКАЙТЕ ОДРАЗУ З РОЗДАЧІ !
СКАЧАВ САМ - ДАЙ СКАЧАТИ ІНШИМ

Anonymous 







2013-03-08 20:53  
Додав українські субтитри. Прохання перезавантажити торрент.

Додано через 30 хвилин 24 секунди:

dumanskiy 
Новенький


З нами з: 07.01.11
Востаннє: 28.11.16
Повідомлень: 18

2013-03-08 22:01  
ОК))) не піду!!! шукав на вечір фільм, але боюсь сьогодні не перегляну Cry (2)
waldi-hurtom 
VIP


З нами з: 07.10.12
Востаннє: 03.12.16
Повідомлень: 611

2013-08-22 19:23  
Вперше подивився цей фільм з початку до кінця. Дякую за реліз!
Ваш часовий пояс: GMT + 2 Години

Нова тема   Відповісти