Завантажити та скачати торренти українською


База "Клейтон" / Basic (2003) BDRiр 1080p Ukr/Eng | Sub Eng

Нові коментарі

Нова тема   Відповісти
Автор Повідомлення
Anonymous 







2013-03-06 16:31  
База "Клейтон" / Basic (2003) BDRiр 1080p Ukr/Eng | Sub Eng

База "Клейтон" / Basic (2003) BDRiр 1080p Ukr/Eng | Sub Eng


Жанр: трилер, драма, кримінал, детектив
Країна: США, Німеччина



Кіностудія / кінокомпанія: Phoenix Pictures, Intermedia Films
Режисер: Джон МакТірнан (John McTiernan)
Актори: Джон Траволта (John Travolta), Конні Нільсен (Connie Nielsen), Семюел Л. Джексон (Samuel L. Jackson), Тім Дейлі (Tim Daly), Джованні Рібізі (Giovanni Ribisi), Брайан Ван Холт (Brian Van Holt), Тей Діггз (Taye Diggs) та інші.

Сюжет:
База "Клейтон" - остання американська військова база на Панамському каналі. Під час секретної тренувальної місії ураган наздоганяє в джунглях групу спецназівців та їхнього легендарного інструктора Нейтона Веста. П'ятеро з них пропадають без звістки, і тільки двоє повертаються на базу. Їхні показання капітанові військової поліції бази "Клейтон" Джулії Озборн суперечливі й заплутані. Для розслідування обставин містичного зникнення елітного загону задіяний колишній агент відділу по боротьбі з наркотиками Харді. Капітан Озборн насторожено ставиться до Харді, підозрюваному в хабарництві з боку місцевих наркодільців. Ситуація ускладнюється також тим фактом, що Харді - колишній учень Веста й ненавидить його не менше, ніж нинішні рекрути...Всі брешуть.


рейтинг MPAA: R - дітям до 17 років обов'язкова присутність батьків або дорослого опікуна
Вікова категорія: 16+

Тривалість: 01:38:10
Якість: 1080p
Відео:
кодек:
розмір кадру: 1920x800
бітрейт: 8979 кб/с

Аудіо # 1:
мова: українська
переклад: багатоголосий закадровий
кодек: 5.1
бітрейт: 384 кб/с

Аудіо # 2:
мова: англійська
переклад: оригінал
кодек: 5.1
бітрейт: 448 кб/с

Субтитри:
мова: англійська
тип: програмні (м'які)
формат: *.srt

Збережено оригінальні розділи, як на Blu-ray.
MediaInfo
General
Unique ID : 222479003027255811094794891125097860126 (0xA75FE5BB88305C39982C55889D298C1E)
Complete name : Basic.2003..1080p.Ukr.Eng.mkv
Format : Matroska
Format version : Version 4 / Version 2
File size : 7.82 GiB
Duration : 1h 38mn
Overall bit rate : 11.4 Mbps
Movie name : База "Клейтон" / Basic (2003)
Encoded date : UTC 2013-03-06 14:06:26
Writing application : mkvmerge v6.1.0 ('Old Devil') built on Mar 2 2013 14:32:37
Writing library : libebml v1.3.0 + libmatroska v1.4.0

Video
ID : 1
Format : AVC
Format/Info : Advanced Video Codec
Format profile : [email protected]
Format settings, CABAC : Yes
Format settings, ReFrames : 5 frames
Codec ID : V_MPEG4/ISO/AVC
Duration : 1h 38mn
Bit rate : 10.6 Mbps
Width : 1 920 pixels
Height : 800 pixels
Display aspect ratio : 2.40:1
Frame rate mode : Constant
Frame rate : 23.976 fps
Color space : YUV
Chroma subsampling : 4:2:0
Bit depth : 8 bits
Scan type : Progressive
Bits/(Pixel*Frame) : 0.287
Stream size : 7.10 GiB (91%)
Title : rip by delia, release by igor911 for Hurtom (База "Клейтон")
Writing library : core 130 r2273 b3065e6
Encoding settings : cabac=1 / ref=5 / deblock=1:-3:-3 / analyse=0x3:0x113 / me=umh / subme=11 / psy=1 / psy_rd=1.05:0.15 / mixed_ref=1 / me_range=32 / chroma_me=1 / trellis=2 / 8x8dct=1 / cqm=0 / deadzone=21,11 / fast_pskip=0 / chroma_qp_offset=-3 / threads=6 / lookahead_threads=1 / sliced_threads=0 / nr=0 / decimate=1 / interlaced=0 / bluray_compat=0 / constrained_intra=0 / bframes=9 / b_pyramid=2 / b_adapt=2 / b_bias=0 / direct=3 / weightb=1 / open_gop=0 / weightp=2 / keyint=240 / keyint_min=23 / scenecut=40 / intra_refresh=0 / rc=2pass / mbtree=0 / bitrate=10580 / ratetol=1.0 / qcomp=0.70 / qpmin=0 / qpmax=69 / qpstep=4 / cplxblur=20.0 / qblur=0.5 / ip_ratio=1.40 / pb_ratio=1.30 / aq=2:0.90
Language : English
Default : Yes
Forced : No
Color primaries : BT.709
Transfer characteristics : BT.709
Matrix coefficients : BT.709

Audio #1
ID : 2
Format : AC-3
Format/Info : Audio Coding 3
Mode extension : CM (complete main)
Format settings, Endianness : Big
Codec ID : A_AC3
Duration : 1h 38mn
Bit rate mode : Constant
Bit rate : 384 Kbps
Channel(s) : 6 channels
Channel positions : Front: L C R, Side: L R, LFE
Sampling rate : 48.0 KHz
Bit depth : 16 bits
Compression mode : Lossy
Stream size : 270 MiB (3%)
Title : MVO Novy 5.1 348 kbps [Hurtom-Jatx_11]
Language : Ukrainian
Default : Yes
Forced : No

Audio #2
ID : 3
Format : AC-3
Format/Info : Audio Coding 3
Mode extension : CM (complete main)
Format settings, Endianness : Big
Codec ID : A_AC3
Duration : 1h 38mn
Bit rate mode : Constant
Bit rate : 448 Kbps
Channel(s) : 6 channels
Channel positions : Front: L C R, Side: L R, LFE
Sampling rate : 48.0 KHz
Bit depth : 16 bits
Compression mode : Lossy
Stream size : 315 MiB (4%)
Title : original
Language : English
Default : No
Forced : No

Text
ID : 4
Format : UTF-8
Codec ID : S_TEXT/UTF8
Codec ID/Info : UTF-8 Plain Text
Title : Eng full
Language : English
Default : Yes
Forced : No

Menu
00:00:00.000 : en:Start
00:08:44.941 : en:Day of the Dead
00:18:42.746 : en:Capt. Julia Osborne
00:27:16.801 : en:Dea Agent Tom Hardy
00:37:45.888 : en:The Problem
00:44:50.437 : en:Stuck with Each Other
00:54:50.078 : en:Sgt. Ray Dunbar & a Fellow Ranger
01:01:04.369 : en:Sgt. Nathan West
01:06:34.156 : en:Green Hell
01:14:50.652 : en:Picking on Pike
01:24:17.886 : en:Pete Vilmer
01:34:08.142 : en:Lt. Levi Kendall


Джерело: ріп відео - delia (FREEISLAND); оригінальні доріжка та субтитри - Dead Man666 (рутрекер); українська доріжка - Jatx_11 (зведення) та Hulk1987 (запис з ТБ); постер - hellforces (всі - Гуртом)


Срібний реліз (на рейтинг впливає 50% завантаженого)
 Трекер:    Зареєстрований   

Завантажити / скачати фільм українською



відео для новачків



 Зареєстрований:   2013-03-06 16:31
 Розмір:   7.82 GB 
 Оцінка фільму:   4.9/10 (Голосів: 18)
   
Інші релізи
   База «Клейтон» / Basic (2003) Jatx_11  5 / 0   1.69 GB   2012-11-21 23:27 
   База Клейтон / Basic (2003) [MP3] Voron16  0 / 0   123 MB   2010-08-05 18:06 
Anonymous 







2013-03-06 16:57  
НЕ ТІКАЙТЕ ОДРАЗУ З РОЗДАЧІ !
СКАЧАВ САМ - ДАЙ СКАЧАТИ ІНШИМ

Olexander 
Новенький


З нами з: 05.10.09
Востаннє: 11.11.16
Повідомлень: 22

2013-03-07 17:19  
А я, до речі, ніколи і не тікаю. Стоять на сіді купа фільмів. Хоч би це якось на рейтингу відображалося - дзуськи.
Ваш часовий пояс: GMT + 2 Години

Нова тема   Відповісти