Завантажити та скачати торренти українською


Коледж [Розширена версія] / College (2008) 1080p Ukr/Eng [Unrated]

Нові коментарі

Нова тема   Відповісти
Останній раз роздавалося Tenax555 (2016-11-26)
Автор Повідомлення
urij546724 
Відео Гуртом - фільмокрай
Відео Гуртом - фільмокрай


З нами з: 16.03.10
Востаннє: 03.12.16
Повідомлень: 5222

2013-03-06 11:19  
Коледж [Розширена версія] / College (2008) 1080p Ukr/Eng [Unrated]


Слогани:
«Best. Weekend. Ever.»


Жанр: комедія, драма, музичний, трилер
Країна: США



Кіностудія / кінокомпанія: Element Films, L.I.F.T. Production
Режисер: Деб Хейген (Deb Hagan)
Актори: Дрейк Белл (Drake Bell), Ендрю Колдуелл (Andrew Caldwell), Ендрі Мосс (Andree Moss), Керолін Мосс (Carolyn Moss), Венді Таллі (Wendy Talley), Кевін Ковейс (Kevin Covais), Алона Тал (Alona Tal), Райан Пінкстон (Ryan Pinkston), Бренді Коулмен (Brandi Coleman)...
Усі актори:
Дрейк Белл (Drake Bell), Ендрю Колдуелл (Andrew Caldwell), Ендрі Мосс (Andree Moss), Керолін Мосс (Carolyn Moss), Венді Таллі (Wendy Talley), Кевін Ковейс (Kevin Covais), Алона Тал (Alona Tal), Райан Пінкстон (Ryan Pinkston), Бренді Коулмен (Brandi Coleman), Джессіка Хіп (Jessica Heap), Фінч Ніссен (Finch Nissen), Камілль Мана (Camille Mana), Хейлі Беннетт (Haley Bennett), Наталі Волкер (Nathalie Walker), Нік Зано (Nick Zano), Гарі Оуен (Gary Owen), Зак Креггер (Zach Cregger), Реггі Мартінез (Reggie Martinez), Діджей Бурас (Deejay Buras), Етан Тобман (Ethan Tobman), Тодд Волц (Todd Voltz), Мелісса Лінгафелт (Melissa Lingafelt), Бренді Блейк (Brandy Blake), Кеті Найтен (Katie Knighten), Нік Еріксон (Nick Erickson), Воллас Мерк (Wallace Merck), Стефані Онор (Stephanie Honore), Марісса Д'онофріо (Marissa D'Onofrio), Трейсі Малхолланд (Tracy Mulholland), Ромео Кларк (Romeo Clarke), Валентина Вон (Valentina Vaughn), Хізер Вандевен (Heather Vandeven), Верн Тройер (Verne Troyer), Ліза Моррісон (Lisa Morrison), Ерл Меддокс (Earl Maddox), Аманда Абаді (Amanda Abadie), Майкл Джей. Гаета (Michael J. Gaeta), Барбара Балентайн (Barbara Balentine), Майкл П. Кехілл (Michael P. Cahill), Майкл Дардант (Michael Dardant), Христина Фішер (Kristina Fisher), Тревіс Фонтенот (Travis Fontenot), Дженіфер Ребекка Фостер (Jenifer Rebecca Foster), Джеральдін Гленн (Geraldine Glenn), Елтон ЛеБланк (Elton LeBlanc), Армандо Ледюк (Armando Leduc), Синтія Лі (Cynthia Leigh), Джессіка Двайер (Jessica Dwyer), Самі Навід (Sami Naveed), Брайан Пітт (Brian Pitt)
Сюжет:
Головне правило першокурсника: не нажити собі ворогів в перший же день в коледжі. Схоже, Кевін і його друзі не знали про це... В перший же день хлопцям удається познайомитися з найкрасивішими студентками і тим самим накликати на себе гнів лідера студентського братерства. З цієї миті нудна на перший погляд поїздка перетворюється на низку негараздів і запаморочливих пригод.

Пиво з системи пожежогасіння, суперклей на унітазах - все це лише мала частина сюрпризів, які чекають лідера студентського братства, а заразом і весь коледж по приїзду Кевіна і його друзів. Адже нудне проведення часу - це явно не про чуваків!


Бюджет: 7 000 000 доларів
Збори в США: 4 694 636 доларів
Збори у світі: 6 230 787 доларів

Media info
General
Unique ID : 236105259437835267315668314470282620410 (0xB1A0380B004C185391E261CB5B5EEDFA)
Complete name : E:\HD1\College (2008) [Unrated] [ukr.OK_eng_AC3_5.1] 1080p [Hurtom] by urij546724.mkv
Format : Matroska
Format version : Version 2
File size : 8.95 GiB
Duration : 1h 35mn
Overall bit rate : 13.5 Mbps
Movie name : College (2008) [Unrated] [ukr.OK_eng_AC3_5.1] 1080p [Hurtom] by urij546724
Encoded date : UTC 2013-03-10 17:55:55
Writing application : mkvmerge v2.9.7 ('Tenderness') built on Jul 1 2009 18:43:35
Writing library : libebml v0.7.7 + libmatroska v0.8.1

Video
ID : 1
Format : AVC
Format/Info : Advanced Video Codec
Format profile : [email protected]
Format settings, CABAC : Yes
Format settings, ReFrames : 4 frames
Codec ID : V_MPEG4/ISO/AVC
Duration : 1h 35mn
Bit rate : 10.4 Mbps
Width : 1 920 pixels
Height : 1 040 pixels
Display aspect ratio : 1.85:1
Frame rate : 23.976 fps
Color space : YUV
Chroma subsampling : 4:2:0
Bit depth : 8 bits
Scan type : Progressive
Bits/(Pixel*Frame) : 0.218
Stream size : 6.76 GiB (76%)
Title : College (2008) [Unrated] [ukr.OK_eng_AC3_5.1] 1080p [Hurtom] by urij546724
Writing library : core 78 r1318 fe83a90
Encoding settings : cabac=1 / ref=4 / deblock=1:0:0 / analyse=0x3:0x113 / me=umh / subme=7 / psy=1 / psy_rd=1.0:0.2 / mixed_ref=1 / me_range=16 / chroma_me=1 / trellis=1 / 8x8dct=1 / cqm=0 / deadzone=21,11 / chroma_qp_offset=-3 / threads=12 / nr=0 / decimate=1 / mbaff=0 / constrained_intra=0 / bframes=3 / b_pyramid=0 / b_adapt=1 / b_bias=0 / direct=1 / wpredb=1 / keyint=250 / keyint_min=25 / scenecut=40 / rc_lookahead=40 / rc=2pass / mbtree=1 / bitrate=10432 / ratetol=1.0 / qcomp=0.60 / qpmin=10 / qpmax=51 / qpstep=4 / cplxblur=20.0 / qblur=0.5 / ip_ratio=1.40 / aq=1:1.00
Language : English
Default : Yes
Forced : No

Audio #1
ID : 2
Format :
Format/Info : Digital Theater Systems
Codec ID : A_DTS
Duration : 1h 35mn
Bit rate mode : Constant
Bit rate : 1 510 Kbps
Channel(s) : 6 channels
Channel positions : Front: L C R, Side: L R, LFE
Sampling rate : 48.0 KHz
Bit depth : 24 bits
Compression mode : Lossy
Stream size : 1.00 GiB (11%)
Title : Українська доріжка
Language : Ukrainian
Default : Yes
Forced : No

Audio #2
ID : 3
Format :
Format/Info : Digital Theater Systems
Codec ID : A_DTS
Duration : 1h 35mn
Bit rate mode : Constant
Bit rate : 1 510 Kbps
Channel(s) : 6 channels
Channel positions : Front: L C R, Side: L R, LFE
Sampling rate : 48.0 KHz
Bit depth : 24 bits
Compression mode : Lossy
Stream size : 1.00 GiB (11%)
Title : Англійська доріжка
Language : English
Default : No
Forced : No

Menu
00:00:00.000 : en:00:00:00.000
00:07:28.990 : en:00:07:28.990
00:14:29.994 : en:00:14:29.994
00:22:55.040 : en:00:22:55.040
00:31:04.988 : en:00:31:04.988
00:39:48.970 : en:00:39:48.970
00:50:52.007 : en:00:50:52.007
01:00:19.991 : en:01:00:19.991
01:09:01.888 : en:01:09:01.888
01:16:31.921 : en:01:16:31.921
01:24:11.922 : en:01:24:11.922
01:30:00.937 : en:01:30:00.937
Тривалість: 01:35:14
Якість: 1080p
Відео:
кодек:
розмір кадру: 1920 х 1040
бітрейт: ~ 10.4 мб/с
частота кадрів: 23.976 к/с (fps)

Аудіо #1:
мова: українська
переклад: багатоголосий закадровий
кодек: 5.1
бітрейт: 1510 кб/с
запис звуку з каналу: ОК
примітка: у кількох місцях є неозвучені фрагменти тривалістю по кілька секунд.

Аудіо #2:
мова: англійська
переклад: оригінал
кодек: 5.1
бітрейт: 1510 кб/с

Скріншоти:






Трейлер:
Семпл
Джерело 1_________Джерело 2_________Джерело 3_________Джерело 4_________Джерело 5_________Джерело 6_________Джерело 7
У випадку, якщо з усіх джерел семпл видалять, прохання повідомити мені у ПРИВАТ


Подяка:

1. Пану urij546724 за запис звуку з ТБ.
2. Пану somnambula за українізацію постера.


Реліз створено:

Особиста оцінка: Ще не дивився.

Реліз зберігати не буду!


 Трекер:    Зареєстрований   

Завантажити / скачати фільм українською



відео для новачків



 Зареєстрований:   2013-03-10 20:57
 Розмір:   8.95 GB 
 Оцінка фільму:   6.6/10 (Голосів: 8)
 Прохання залишати коментарі і не тікати з роздачі.
   
Інші релізи
VoV4i4 
Новенький


З нами з: 07.07.10
Востаннє: 02.12.16
Повідомлень: 2

2013-03-06 19:10  
Коли скачати можна?
and1707 
Поважний учасник


З нами з: 28.09.11
Востаннє: 03.12.16
Повідомлень: 169

2013-03-06 19:16  
urij546724,
А навіщо одразу 1080p, якщо навіть стандартного ріпу нема? І нащо роздувати запис аж до ???

urij546724 
Відео Гуртом - фільмокрай
Відео Гуртом - фільмокрай


З нами з: 16.03.10
Востаннє: 03.12.16
Повідомлень: 5222

2013-03-06 19:28  
VoV4i4 написано:
Коли скачати можна?

Точно незнаю як вийде. Спочатку буду робив інший фільм. Скоріш за все цей буде наступного тижня.
and1707 написано:
А навіщо одразу 1080p, якщо навіть стандартного ріпу нема? І нащо роздувати запис аж до ???

Не бійся, буде й AVI на 2 Гб)
Щойно роздам 1080, то викладу ріп, просто анонс не роблю, щоб не засмічувати.

Щодо роздування, то цього я теж не роблю. Українську доріжку буде повністю почищено і накладено на оригінал, тож вийде майже справжній .
У ріпі буде звичайний 640

and1707 
Поважний учасник


З нами з: 28.09.11
Востаннє: 03.12.16
Повідомлень: 169

2013-03-06 19:33  
urij546724,
Ясно, спс, чекаю на станд. ріп. Rolleyes (2)

VoV4i4 
Новенький


З нами з: 07.07.10
Востаннє: 02.12.16
Повідомлень: 2

2013-03-06 22:42  
Буду чекати ) Дякую за відповідь! )
bot 
робот


З нами з: 30.09.07
Востаннє: 26.05.05
Повідомлень: 15975

2013-03-10 20:57  
Тему перенесено з Анонси релізів від Відео Гуртом до форуму Фільми в HD

Причина перенесення: початок роздачі
urij546724

exeeto 
Частий відвідувач


З нами з: 05.08.09
Востаннє: 03.12.16
Повідомлень: 44

2014-08-09 12:31  
urij546724

Дуже дякую за цей фільм в hd! А може у Вас і ремукс є? Rolleyes (2)

Ваш часовий пояс: GMT + 2 Години

Нова тема   Відповісти