Завантажити та скачати торренти українською


Імітатор / Copycat (1995) 1080p Ukr/Eng | Sub Eng

Нові коментарі

Нова тема   Відповісти
Автор Повідомлення
Anonymous 







2013-03-05 01:00  
Імітатор / Copycat (1995) 1080p Ukr/Eng | Sub Eng

Імітатор / Copycat (1995) 1080p Ukr/Eng | Sub Eng


Жанр: трилер, кримінал, детектив, жахи
Країна: США



Кіностудія / кінокомпанія: Regency Enterprises, New Regency Pictures
Режисер: Джон Еміел / Jon Amiel
Актори: Сігурні Вівер / Sigourney Weaver, Холлі Хантер / Holly Hunter, Дермот Малруні / Dermot Mulroney, Вільям МакНамара / William McNamara, Гаррі Коннік мол. / Harry Connick Jr., Дж. Е. Фрімен / J.E. Freeman, Вілл Петтон / Will Patton, Джон Ротмен / John Rothman, Шеннон О’Харлі / Shannon O'Hurley, Боб Грін / Bob Greene та інші.

Сюжет:
9 з 10 серійних убивць - це білі американці у віці від 20 до 35 років. У штаті Флорида було витрачено 8 мільйонів доларів, щоб стратити серійного вбивцю Теда Банді. Чи не краще було надати його в розпорядження вчених, щоб уникнути появи нових «тедів банді» у майбутньому? - Задає з кафедри питання слухачам вчений-криміналіст, експерт із двадцятирічним стажем, доктор Хелен Хадсон.
Відповідь вона отримує через кілька хвилин у туалеті, де, повісивши її саму за шию так, щоб пальці ніг ледь торкалися унітазу, маніяк на її очах вбиває її охоронця. В результаті перенесеного шоку вона 13 місяців перебуває в стані панічного страху, не виходячи з квартири, поки до неї не звертаються за допомогою поліцейські-напарники, красень Рубен і симпатична розумниця з колючим язичком М. Джей (так, ініціалами її називають колеги).
Вони ведуть розслідування серії вбивств, скоєних черговим маніяком. Маніяк, божевільний неабиякого розуму, практично кидає виклик Хелен, почавши цю «шахову партію» в манері «бостонського душителя» ...


рейтинг MPAA: R - дітям до 17 років обов'язкова присутність батьків або дорослого опікуна
Вікова категорія: 16+

Тривалість: 02:03:05
Якість: 1080p
Відео:
кодек:
розмір кадру: 1920x800
бітрейт: 7746 кб/с

Аудіо # 1:
мова: українська
переклад: багатоголосий закадровий
кодек: 5.1
бітрейт: 384 кб/с

Аудіо # 2:
мова: англійська
переклад: оригінал
кодек: 5.1
бітрейт: 640 кб/с

Субтитри:
мова: англійська
тип: програмні (м'які)
формат: *.srt

Збережено оригінальні розділи, як на Blu-ray.
MediaInfo
General
Unique ID : 251411749803592866591777978880231287308 (0xBD242448883C7B8CAFB9E871400D2A0C)
Complete name : Copycat.1995..1080p.Ukr.Eng.mkv
Format : Matroska
Format version : Version 4 / Version 2
File size : 7.54 GiB
Duration : 2h 3mn
Overall bit rate : 8 767 Kbps
Movie name : Імітатор / Copycat / Имитатор (1995)
Encoded date : UTC 2013-03-04 19:45:49
Writing application : mkvmerge v6.1.0 ('Old Devil') built on Mar 2 2013 14:32:37
Writing library : libebml v1.3.0 + libmatroska v1.4.0

Video
ID : 1
Format : AVC
Format/Info : Advanced Video Codec
Format profile : [email protected]
Format settings, CABAC : Yes
Format settings, ReFrames : 5 frames
Codec ID : V_MPEG4/ISO/AVC
Duration : 2h 3mn
Bit rate : 7 746 Kbps
Width : 1 920 pixels
Height : 800 pixels
Display aspect ratio : 2.40:1
Frame rate mode : Constant
Frame rate : 23.976 fps
Color space : YUV
Chroma subsampling : 4:2:0
Bit depth : 8 bits
Scan type : Progressive
Bits/(Pixel*Frame) : 0.210
Stream size : 6.51 GiB (86%)
Title : Імітатор / Copycat / Имитатор (1995) rip by Boriy, release by igor911 for Hurtom
Writing library : core 129 r2245 bc13772
Encoding settings : cabac=1 / ref=5 / deblock=1:-3:-3 / analyse=0x3:0x113 / me=umh / subme=10 / psy=1 / psy_rd=1.00:0.10 / mixed_ref=1 / me_range=32 / chroma_me=1 / trellis=2 / 8x8dct=1 / cqm=0 / deadzone=21,11 / fast_pskip=0 / chroma_qp_offset=-2 / threads=12 / lookahead_threads=2 / sliced_threads=0 / nr=0 / decimate=0 / interlaced=0 / bluray_compat=0 / constrained_intra=0 / bframes=5 / b_pyramid=2 / b_adapt=2 / b_bias=0 / direct=3 / weightb=1 / open_gop=0 / weightp=2 / keyint=240 / keyint_min=23 / scenecut=40 / intra_refresh=0 / rc=2pass / mbtree=0 / bitrate=7746 / ratetol=1.0 / qcomp=0.60 / qpmin=0 / qpmax=69 / qpstep=4 / cplxblur=20.0 / qblur=0.5 / ip_ratio=1.40 / pb_ratio=1.30 / aq=1:0.80
Language : English
Default : Yes
Forced : No

Audio #1
ID : 2
Format : AC-3
Format/Info : Audio Coding 3
Mode extension : CM (complete main)
Format settings, Endianness : Big
Codec ID : A_AC3
Duration : 2h 3mn
Bit rate mode : Constant
Bit rate : 384 Kbps
Channel(s) : 6 channels
Channel positions : Front: L C R, Side: L R, LFE
Sampling rate : 48.0 KHz
Bit depth : 16 bits
Compression mode : Lossy
Delay relative to video : 4s 20ms
Stream size : 338 MiB (4%)
Title : MVO ICTV 5.1 384 kbps [Neo777, dvorsky - Hurtom]
Language : Ukrainian
Default : Yes
Forced : No

Audio #2
ID : 3
Format : AC-3
Format/Info : Audio Coding 3
Mode extension : CM (complete main)
Format settings, Endianness : Big
Codec ID : A_AC3
Duration : 2h 3mn
Bit rate mode : Constant
Bit rate : 640 Kbps
Channel(s) : 6 channels
Channel positions : Front: L C R, Side: L R, LFE
Sampling rate : 48.0 KHz
Bit depth : 16 bits
Compression mode : Lossy
Stream size : 563 MiB (7%)
Title : original
Language : English
Default : No
Forced : No

Text
ID : 4
Format : UTF-8
Codec ID : S_TEXT/UTF8
Codec ID/Info : UTF-8 Plain Text
Title : Eng full
Language : English
Default : No
Forced : No

Menu
00:00:00.000 : :Chapter 1
00:03:51.397 : :Chapter 2
00:07:12.098 : :Chapter 3
00:10:25.499 : :Chapter 4
00:12:41.844 : :Chapter 5
00:13:53.249 : :Chapter 6
00:19:19.950 : :Chapter 7
00:20:50.248 : :Chapter 8
00:25:26.691 : :Chapter 9
00:31:40.106 : :Chapter 10
00:33:41.477 : :Chapter 11
00:36:21.262 : :Chapter 12
00:38:16.252 : :Chapter 13
00:42:17.493 : :Chapter 14
00:47:07.825 : :Chapter 15
00:48:41.084 : :Chapter 16
00:51:32.839 : :Chapter 17
00:53:50.894 : :Chapter 18
00:58:07.066 : :Chapter 19
01:00:21.868 : :Chapter 20
01:06:42.248 : :Chapter 21
01:09:16.402 : :Chapter 22
01:11:31.662 : :Chapter 23
01:14:42.769 : :Chapter 24
01:16:41.555 : :Chapter 25
01:21:54.951 : :Chapter 26
01:25:31.793 : :Chapter 27
01:28:22.547 : :Chapter 28
01:32:50.606 : :Chapter 29
01:36:12.141 : :Chapter 30
01:38:13.596 : :Chapter 31
01:39:26.210 : :Chapter 32
01:42:36.316 : :Chapter 33
01:47:33.155 : :Chapter 34
01:49:34.150 : :Chapter 35
01:51:02.656 : :Chapter 36
01:52:25.822 : :Chapter 37
01:53:35.391 : :Chapter 38
01:55:30.214 : :Chapter 39
02:03:05.586 : :Chapter 40



Джерело: ріп відео, оригінальна доріжка та субтитри - boriy (рутор), українська доріжка - Neo777 (зведення) та dvorsky (запис з ТБ); постер - Дмитро митро (всі - Гуртом)


Срібний реліз (на рейтинг впливає 50% завантаженого)
 Трекер:    Зареєстрований   

Завантажити / скачати фільм українською



відео для новачків



 Зареєстрований:   2013-03-05 01:00
 Розмір:   7.54 GB 
 Оцінка фільму:   3.6/10 (Голосів: 14)
   
Інші релізи
   Імітатор / Copycat (1995) Ukr/Eng | Sub Eng Neo777  5 / 0   2.18 GB   2011-06-17 10:35 
Anonymous 







2013-03-05 01:05  
НЕ ТІКАЙТЕ З РОЗДАЧІ!
СКАЧАЛИ САМІ - ДАЙТЕ СКАЧАТИ ІНШИМ

Ваш часовий пояс: GMT + 2 Години

Нова тема   Відповісти