Завантажити та скачати торренти українською


Фантомас - Трилогія / Fantomas - Trilogy (1964-1967) 720p Ukr/Fra

Нові коментарі

Нова тема   Відповісти
Автор Повідомлення
chaoscor 
Свій


З нами з: 17.10.10
Востаннє: 03.12.16
Повідомлень: 73

2013-03-04 21:19  
Фантомас - Трилогія / Fantomas - Trilogy (1964-1967) 720p Ukr/Fra

Фантомас - Трилогія / Fantomas - Trilogy (1964-1967) 720p Ukr/Fra


Жанр: кримінальний, комедія, пригодницький
Країна: Франція, Італія
Фантомас / Fantômas (1964) 720p Ukr/Fra


Фантомас / Fantômas (1964) 720p Ukr/Fra

Фантомас - Трилогія / Fantomas - Trilogy (1964-1967) 720p Ukr/Fra


Жанр: кримінальний, комедія, пригодницький
Країна: Франція, Італія



Режисер: Андре Юнебель
Актори: Жан Маре, Луї де Фюнес, Мілен Демонжо, Жак Дінам, Роберт Дальбан , Марі-Елен Арно та інші.

Сюжет:
Перший фільм трилогії про неймовірні пригоди комісара Жюва, який переслідує невловимого злочинця Фантомаса. Париж приголомшений сенсаційними та зухвалими злочинами, здійсненими таємничим лиходієм на ім'я Фантомас. Щоб упіймати його, задіяні всі сили поліції, але Фантомас практично невловимий. Він весь час змінює вигляд, спритно вислизаючи з рук правосуддя. Натрапити на його слід вдається лише комісарові Жюву за допомогою Елен, подруги викраденого журналіста Фандора.


Тривалість: 01:44:15
Якість:
Відео:
кодек:
розмір кадру: 1280 х 544
бітрейт: 8272 кб/с

Аудіо # 1:
мова: українська
переклад: професійний дубльований
кодек: 2.0
бітрейт: 256 кб/с
Джерело озвучення:


Аудіо # 2:
мова: французька
переклад: оригінал
кодек: 2.0
бітрейт: 755 кб/с
MediaInfo
D:\проекти\1964\Fantomas (1964) 720p UkrEng.mkv
General
Complete name : D:\проекти\1964\Fantomas (1964) 720p UkrEng.mkv
Format : Matroska
File size : 6.77 GiB
Duration : 1h 44mn
Overall bit rate : 9 298 Kbps
Movie name : Fantomas (1964) - Release for HDCLUB
Encoded date : UTC 2013-03-04 15:32:00
Writing application : mkvmerge v5.2.1 ('A Far Off Place') built on Jan 2 2012 23:21:10
Writing library : libebml v1.2.3 + libmatroska v1.3.0
Video #1
ID : 1
Format : AVC
Format/Info : Advanced Video Codec
Format profile : [email protected]
Format settings, CABAC : Yes
Format settings, ReFrames : 9 frames
Muxing mode : Container [email protected]
Codec ID : V_MPEG4/ISO/AVC
Duration : 1h 44mn
Bit rate : 8 272 Kbps
Width : 1 280 pixels
Height : 544 pixels
Display aspect ratio : 2.35:1
Frame rate : 24.000 fps
Color space : YUV
Chroma subsampling : 4:2:0
Bit depth : 8 bits
Scan type : Progressive
Bits/(Pixel*Frame) : 0.495
Stream size : 5.90 GiB (87%)
Title : Release for HDCLUB
Writing library : core 104 r1677 19df41a
Encoding settings : cabac=1 / ref=9 / deblock=1:-3:-3 / analyse=0x3:0x133 / me=umh / subme=9 / psy=1 / psy_rd=1.00:0.00 / mixed_ref=1 / me_range=32 / chroma_me=1 / trellis=2 / 8x8dct=1 / cqm=0 / deadzone=21,11 / fast_pskip=0 / chroma_qp_offset=-2 / threads=12 / sliced_threads=0 / nr=0 / decimate=0 / interlaced=0 / constrained_intra=0 / bframes=10 / b_pyramid=2 / b_adapt=2 / b_bias=0 / direct=3 / weightb=1 / open_gop=0 / weightp=2 / keyint=250 / keyint_min=23 / scenecut=40 / intra_refresh=0 / rc_lookahead=60 / rc=2pass / mbtree=0 / bitrate=8272 / ratetol=1.0 / qcomp=0.60 / qpmin=10 / qpmax=51 / qpstep=4 / cplxblur=20.0 / qblur=0.5 / vbv_maxrate=50000 / vbv_bufsize=62500 / ip_ratio=1.40 / pb_ratio=1.30 / aq=1:1.00 / nal_hrd=none
Language : English
Audio #2
ID : 2
Format : AC-3
Format/Info : Audio Coding 3
Mode extension : CM (complete main)
Codec ID : A_AC3
Duration : 1h 44mn
Bit rate mode : Constant
Bit rate : 256 Kbps
Channel(s) : 2 channels
Channel positions : Front: L R
Sampling rate : 48.0 KHz
Bit depth : 16 bits
Stream size : 191 MiB (3%)
Language : Ukrainian
Audio #3
ID : 3
Format :
Format/Info : Digital Theater Systems
Codec ID : A_DTS
Duration : 1h 44mn
Bit rate mode : Constant
Bit rate : 755 Kbps
Channel(s) : 2 channels
Channel positions : Front: L R
Sampling rate : 48.0 KHz
Bit depth : 16 bits
Stream size : 563 MiB (8%)
Title : 2.0 @ 768 kbps
Language : French
Скріншоти


Джерело: &
Особиста оцінка: 10 - без зайвих вагань рекомендую всім!
Фантомас розбушувався / Fantômas se déchaîne (1965) 720p 2xUkr/Fra


Фантомас розбушувався / Fantômas se déchaîne (1965) 720p 2xUkr/Fra

Фантомас - Трилогія / Fantomas - Trilogy (1964-1967) 720p Ukr/Fra


Жанр: кримінальний, комедія, пригодницький
Країна: Франція, Італія



Режисер: Андре Юнебель
Актори: Жан Маре, Луї де Фюнес, Мілен Демонжо, Жак Дінам, Робер Дальбан, Альбер Даньян, Крістіан Тома, Мішель Дюпле, Олів'є Де Фюнес, Флоранс Бло

Сюжет:
Другий фільм трилогії про таємничого злочинця, який і досі є візитівкою французької комедії. Через рік після того, як комісар Жюв і репортер Фандор упустили Фантомаса, суперзлочинець знову дав про себе знати, викравши відомого вченого. Наступною жертвою повинен стати його помічник, професор Лефевр. Фандор, видаючи себе за професора, їде в Рим і ... потрапляє прямо в руки Фантомаса. Поспішаючи на допомогу, Жюв і Елен самі потрапляють у пастку. Тепер доводиться думати, як рятуватися самим і втекти з лігва Фантомаса.


Тривалість: 01:38:49
Якість:
Відео:
кодек:
розмір кадру: 1280 х 546
бітрейт: 7500 кб/с

Аудіо # 1:
мова: українська
переклад: професійний дубльований
кодек: 2.0
бітрейт: 256 кб/с
Джерело озвучення:


Аудіо # 2:
мова: українська
переклад: двоголосий закадровий
кодек: 2.0
бітрейт: 256 кб/с
Джерело озвучення:


Аудіо # 3:
мова: французька
переклад: оригінал
кодек: 2.0
бітрейт: 755 кб/с
MediaInfo
D:\проекти\1965\Fantomas se dechaine (1965) 720p 2UkrFra .mkv
General
Complete name : D:\проекти\1965\Fantomas se dechaine (1965) 720p 2UkrFra .mkv
Format : Matroska
File size : 6.06 GiB
Duration : 1h 38mn
Overall bit rate : 8 782 Kbps
Movie name : Fantomas se dechaine (1965) - Release for HDClub
Encoded date : UTC 2013-03-04 16:00:28
Writing application : mkvmerge v5.2.1 ('A Far Off Place') built on Jan 2 2012 23:21:10
Writing library : libebml v1.2.3 + libmatroska v1.3.0
Video #1
ID : 1
Format : AVC
Format/Info : Advanced Video Codec
Format profile : [email protected]
Format settings, CABAC : Yes
Format settings, ReFrames : 11 frames
Muxing mode : Container [email protected]
Codec ID : V_MPEG4/ISO/AVC
Duration : 1h 38mn
Bit rate : 7 500 Kbps
Width : 1 280 pixels
Height : 546 pixels
Display aspect ratio : 2.35:1
Frame rate : 24.000 fps
Color space : YUV
Chroma subsampling : 4:2:0
Bit depth : 8 bits
Scan type : Progressive
Bits/(Pixel*Frame) : 0.447
Stream size : 5.07 GiB (84%)
Title : Release for HDClub
Writing library : core 113 r1884 7313bb5
Encoding settings : cabac=1 / ref=11 / deblock=1:-3:-3 / analyse=0x3:0x133 / me=umh / subme=9 / psy=1 / psy_rd=1.20:0.00 / mixed_ref=1 / me_range=32 / chroma_me=1 / trellis=2 / 8x8dct=1 / cqm=0 / deadzone=21,11 / fast_pskip=0 / chroma_qp_offset=-2 / threads=6 / sliced_threads=0 / nr=0 / decimate=0 / interlaced=0 / constrained_intra=0 / bframes=7 / b_pyramid=2 / b_adapt=2 / b_bias=0 / direct=3 / weightb=1 / open_gop=0 / weightp=2 / keyint=250 / keyint_min=24 / scenecut=40 / intra_refresh=0 / rc_lookahead=60 / rc=2pass / mbtree=1 / bitrate=7500 / ratetol=1.0 / qcomp=0.75 / qpmin=0 / qpmax=69 / qpstep=4 / cplxblur=20.0 / qblur=0.5 / vbv_maxrate=50000 / vbv_bufsize=62500 / nal_hrd=none / ip_ratio=1.40 / aq=1:0.80
Language : French
Audio #2
ID : 2
Format : AC-3
Format/Info : Audio Coding 3
Mode extension : CM (complete main)
Codec ID : A_AC3
Duration : 1h 38mn
Bit rate mode : Constant
Bit rate : 256 Kbps
Channel(s) : 2 channels
Channel positions : Front: L R
Sampling rate : 48.0 KHz
Bit depth : 16 bits
Stream size : 181 MiB (3%)
Language : Ukrainian
Audio #3
ID : 3
Format : AC-3
Format/Info : Audio Coding 3
Mode extension : CM (complete main)
Codec ID : A_AC3
Duration : 1h 38mn
Bit rate mode : Constant
Bit rate : 256 Kbps
Channel(s) : 2 channels
Channel positions : Front: L R
Sampling rate : 48.0 KHz
Bit depth : 16 bits
Stream size : 181 MiB (3%)
Language : Ukrainian
Audio #4
ID : 4
Format :
Format/Info : Digital Theater Systems
Codec ID : A_DTS
Duration : 1h 38mn
Bit rate mode : Constant
Bit rate : 755 Kbps
Channel(s) : 2 channels
Channel positions : Front: L R
Sampling rate : 48.0 KHz
Bit depth : 16 bits
Stream size : 533 MiB (9%)
Title : 2.0 @ 768 kbps - Оригинал
Language : French
Скріншоти


Джерело: &
Особиста оцінка: 10 - без зайвих вагань рекомендую всім!
Фантомас проти Скотланд-Ярда / Fantômas contre Scotland Yard (1967) 720p 2xUkr/Fra


Фантомас проти Скотланд-Ярда / Fantômas contre Scotland Yard (1967) 720p 2xUkr/Fra

Фантомас - Трилогія / Fantomas - Trilogy (1964-1967) 720p Ukr/Fra


Жанр: кримінальний, комедія, пригодницький
Країна: Франція, Італія



Режисер: Андре Юнебель
Актори: Жан Маре, Луї де Фюнес, Мілен Демонжо, Жак Дінам, Франсуаза Крістоф, Жан-Роже Коссімон, Робер Дальбан, Андре Дюма, Макс Монтавон, Рита Ренуар, Жан Озенн

Сюжет:
Цього разу різноликий лиходій вирішує обкласти даниною найбагатших людей світу, а натомість гарантує їм життя. Комісар Жюв зі своїми вірними друзями, Фандором і Елен, прибуває в шотландський замок для того, щоб захистити його власника і знову спробувати зловити Фантомаса.


Тривалість: 01:40:58
Якість:
Відео:
кодек:
розмір кадру: 1280 х 546
бітрейт: 7200 кб/с

Аудіо # 1:
мова: українська
переклад: професійний дубльований
кодек: 2.0
бітрейт: 256 кб/с
Джерело озвучення:


Аудіо # 2:
мова: українська
переклад: двоголосий закадровий
кодек: 2.0
бітрейт: 192 кб/с
Джерело озвучення:


Аудіо # 3:
мова: французька
переклад: оригінал
кодек: 2.0
бітрейт: 755 кб/с
MediaInfo
D:\проекти\1967\Fantomas contre Scotland Yard (1967) 720p 2UkrFra.mkv
General
Complete name : D:\проекти\1967\Fantomas contre Scotland Yard (1967) 720p 2UkrFra.mkv
Format : Matroska
File size : 5.94 GiB
Duration : 1h 40mn
Overall bit rate : 8 418 Kbps
Movie name : Fantomas contre Scotland Yard (1967) - Release for HDClub
Encoded date : UTC 2013-03-04 16:29:44
Writing application : mkvmerge v5.2.1 ('A Far Off Place') built on Jan 2 2012 23:21:10
Writing library : libebml v1.2.3 + libmatroska v1.3.0
Video #1
ID : 1
Format : AVC
Format/Info : Advanced Video Codec
Format profile : [email protected]
Format settings, CABAC : Yes
Format settings, ReFrames : 11 frames
Format settings, GOP : M=1, N=32
Muxing mode : Container [email protected]
Codec ID : V_MPEG4/ISO/AVC
Duration : 1h 40mn
Bit rate : 7 200 Kbps
Width : 1 280 pixels
Height : 546 pixels
Display aspect ratio : 2.35:1
Frame rate : 24.000 fps
Color space : YUV
Chroma subsampling : 4:2:0
Bit depth : 8 bits
Scan type : Progressive
Bits/(Pixel*Frame) : 0.429
Stream size : 4.97 GiB (84%)
Title : Release for HDClub
Writing library : core 114 r1900 60ef1f8
Encoding settings : cabac=1 / ref=11 / deblock=1:-3:-3 / analyse=0x3:0x133 / me=umh / subme=9 / psy=1 / psy_rd=1.20:0.05 / mixed_ref=1 / me_range=32 / chroma_me=1 / trellis=2 / 8x8dct=1 / cqm=0 / deadzone=21,11 / fast_pskip=0 / chroma_qp_offset=-3 / threads=6 / sliced_threads=0 / nr=0 / decimate=0 / interlaced=0 / constrained_intra=0 / bframes=7 / b_pyramid=2 / b_adapt=2 / b_bias=0 / direct=3 / weightb=1 / open_gop=0 / weightp=2 / keyint=250 / keyint_min=24 / scenecut=40 / intra_refresh=0 / rc_lookahead=60 / rc=2pass / mbtree=1 / bitrate=7200 / ratetol=1.0 / qcomp=0.75 / qpmin=0 / qpmax=69 / qpstep=4 / cplxblur=20.0 / qblur=0.5 / vbv_maxrate=50000 / vbv_bufsize=62500 / nal_hrd=none / ip_ratio=1.40 / aq=1:0.80
Language : French
Audio #2
ID : 2
Format : AC-3
Format/Info : Audio Coding 3
Mode extension : CM (complete main)
Codec ID : A_AC3
Duration : 1h 40mn
Bit rate mode : Constant
Bit rate : 256 Kbps
Channel(s) : 2 channels
Channel positions : Front: L R
Sampling rate : 48.0 KHz
Bit depth : 16 bits
Stream size : 185 MiB (3%)
Language : Ukrainian
Audio #3
ID : 3
Format : AC-3
Format/Info : Audio Coding 3
Mode extension : CM (complete main)
Codec ID : A_AC3
Duration : 1h 40mn
Bit rate mode : Constant
Bit rate : 192 Kbps
Channel(s) : 2 channels
Channel positions : Front: L R
Sampling rate : 48.0 KHz
Bit depth : 16 bits
Stream size : 139 MiB (2%)
Language : Ukrainian
Audio #4
ID : 4
Format :
Format/Info : Digital Theater Systems
Codec ID : A_DTS
Duration : 1h 40mn
Bit rate mode : Constant
Bit rate : 755 Kbps
Channel(s) : 2 channels
Channel positions : Front: L R
Sampling rate : 48.0 KHz
Bit depth : 16 bits
Stream size : 545 MiB (9%)
Title : 2.0 @ 768 kbps - Оригинал
Language : French
Скріншоти


Джерело: &
Особиста оцінка: 10 - без зайвих вагань рекомендую всім!
подяка за українські доріжки robotron005

Джерело: &
Особиста оцінка: 10 - без зайвих вагань рекомендую всім!


Срібний реліз (на рейтинг впливає 50% завантаженого)
 Трекер:    Зареєстрований   

Завантажити / скачати фільм українською



відео для новачків



 Зареєстрований:   2013-03-04 21:19
 Розмір:   18.77 GB 
 Оцінка фільму:   9.8/10 (Голосів: 18)
   
ratbol 
Модератор HD


З нами з: 03.02.09
Востаннє: 07.12.16
Повідомлень: 1088

2013-03-05 10:31  
chaoscor написано:
Title : 2.0 @ 768 kbps - Оригинал

Уважніже збирайте.

Ваш часовий пояс: GMT + 2 Години

Нова тема   Відповісти