Завантажити та скачати торренти українською


Dalai Lama - The Sixth Turtle (2008) [FLAC] | Alternative

Нові коментарі

Нова тема   Відповісти
Останній раз роздавалося mraka (2016-10-09)
Автор Повідомлення
muhomor 
VIP


З нами з: 04.12.11
Востаннє: 29.11.16
Повідомлень: 297

2013-03-03 23:54  
Dalai Lama - The Sixth Turtle (2008) [FLAC] | Alternative

Dalai Lama - The Sixth Turtle (2008) [FLAC] | Alternative


Стиль: Alternative
Країна, місто: Україна, Львів
Сайти: myspace
Видавець: гурт видав платівку самотужки
Виконавці:
Васецький Олександр - вокал, тексти, клавіші
Мальцев Павло - вокал, тексти
Гайдучик Назар - гітара
Дзіндзьо Ігор - гітара
Петелько Олексій - бас
Немирський Сергій - ударні
Пісні:
    01. Бантики
    02. Sparcles
    03. Disco
    04. Cosmos
    05. Audrey Hepburn
    06. Prison
    07. Spirulina
    08. Whales
    09. Спортлото
    10. Gales
    11. Michael Jackson Knows (+ hidden track)
    Audiochecker


    AUDIOCHECKER v2.0 beta (build 457) - by Dester - [email protected]
    ~~~~~~~~~~~~~~~~~~~~~~~~~~~~~~~~~~

    Started at: воскресенье, 03. 03. 2013. - 23:42.08
    11 files found

    01 -===- D:\hurtom.com\Dalai Lama - «The Sixth Turtle» (2008) (FLAC)\01 Dalai Lama Бантики.flac
    Extracted successfully
    Conclusion: this track is CDDA with probability 100%
    Tempfile successfully deleted.

    02 -===- D:\hurtom.com\Dalai Lama - «The Sixth Turtle» (2008) (FLAC)\02 Dalai Lama Sparcles.flac
    Extracted successfully
    Conclusion: this track is CDDA with probability 100%
    Tempfile successfully deleted.

    03 -===- D:\hurtom.com\Dalai Lama - «The Sixth Turtle» (2008) (FLAC)\03 Dalai Lama Disco.flac
    Extracted successfully
    Conclusion: this track is CDDA with probability 100%
    Tempfile successfully deleted.

    04 -===- D:\hurtom.com\Dalai Lama - «The Sixth Turtle» (2008) (FLAC)\04 Dalai Lama Cosmos.flac
    Extracted successfully
    Conclusion: this track is CDDA with probability 100%
    Tempfile successfully deleted.

    05 -===- D:\hurtom.com\Dalai Lama - «The Sixth Turtle» (2008) (FLAC)\05 Dalai Lama Audrey Hepburn.flac
    Extracted successfully
    Conclusion: this track is CDDA with probability 100%
    Tempfile successfully deleted.

    06 -===- D:\hurtom.com\Dalai Lama - «The Sixth Turtle» (2008) (FLAC)\06 Dalai Lama Prison.flac
    Extracted successfully
    Conclusion: this track is CDDA with probability 99%
    Tempfile successfully deleted.

    07 -===- D:\hurtom.com\Dalai Lama - «The Sixth Turtle» (2008) (FLAC)\07 Dalai Lama Spirulina.flac
    Extracted successfully
    Conclusion: this track is CDDA with probability 100%
    Tempfile successfully deleted.

    08 -===- D:\hurtom.com\Dalai Lama - «The Sixth Turtle» (2008) (FLAC)\08 Dalai Lama Whales.flac
    Extracted successfully
    Conclusion: this track is CDDA with probability 100%
    Tempfile successfully deleted.

    09 -===- D:\hurtom.com\Dalai Lama - «The Sixth Turtle» (2008) (FLAC)\09 Dalai Lama Спортлото.flac
    Extracted successfully
    Conclusion: this track is CDDA with probability 99%
    Tempfile successfully deleted.

    10 -===- D:\hurtom.com\Dalai Lama - «The Sixth Turtle» (2008) (FLAC)\10 Dalai Lama Gales.flac
    Extracted successfully
    Conclusion: this track is CDDA with probability 100%
    Tempfile successfully deleted.

    11 -===- D:\hurtom.com\Dalai Lama - «The Sixth Turtle» (2008) (FLAC)\11 Dalai Lama Michael Jackson Knows (+ hidden track).flac
    Extracted successfully
    Conclusion: this track is CDDA with probability 99%
    Tempfile successfully deleted.

    Finished at: воскресенье, 03. 03. 2013. - 23:46.53 (operation time: 0:04.44)
    Log

    Exact Audio Copy V1.0 beta 3 from 29. August 2011

    Отчёт EAC об извлечении, выполненном 3. марта 2013, 23:38

    Dalai Lama / The Sixth Turtle

    Дисковод: ASUS DRW-2014S1T Adapter: 2 ID: 8

    Режим чтения : Достоверность
    Использование точного потока : Да
    Отключение кэша аудио : Да
    Использование указателей C2 : Нет

    Коррекция смещения при чтении : 6
    Способность читать области Lead-in и Lead-out : Нет
    Заполнение пропущенных сэмплов тишиной : Да
    Удаление блоков с тишиной в начале и конце : Нет
    При вычислениях CRC использовались нулевые сэмплы : Да
    Интерфейс : Встроенный Win32-интерфейс для Win NT/2000
    Обработка зазоров : Добавлено к предыдущему треку

    Выходной формат : Пользовательский кодировщик
    Выбранный битрейт : 128 kBit/s
    Качество : Высокий
    Добавление ID3-тега : Нет
    Утилита сжатия : C:\Program Files\Exact Audio Copy\Flac\flac.exe
    Дополнительные параметры : -V -8 -T "Genre=%genre%" -T "Artist=%artist%" -T "Title=%title%" -T "Album=%albumtitle%" -T "Date=%year%" -T "Tracknumber=%tracknr%" -T "Comment=%comment%" %source%

    TOC извлечённого CD

    Трек | Старт | Длительность | Начальный сектор | Конечный сектор
    ---------------------------------------------------------------------
    1 | 0:00.00 | 4:05.74 | 0 | 18448
    2 | 4:05.74 | 3:40.74 | 18449 | 35022
    3 | 7:46.73 | 2:04.65 | 35023 | 44387
    4 | 9:51.63 | 3:31.74 | 44388 | 60286
    5 | 13:23.62 | 3:54.61 | 60287 | 77897
    6 | 17:18.48 | 3:49.37 | 77898 | 95109
    7 | 21:08.10 | 4:08.62 | 95110 | 113771
    8 | 25:16.72 | 4:32.37 | 113772 | 134208
    9 | 29:49.34 | 3:12.74 | 134209 | 148682
    10 | 33:02.33 | 3:47.46 | 148683 | 165753
    11 | 36:50.04 | 6:52.37 | 165754 | 196690

    Трек 1

    Имя файла D:\Documents and Settings\user\Рабочий стол\«»—0–\01 Dalai Lama Бантики.wav

    Длина предзазора 0:00:02.00

    Пиковый уровень 98.0 %
    Скорость извлечения 4.5 X
    Качество трека 99.9 %
    CRC теста EE24CEF5
    CRC копии EE24CEF5
    Копирование... OK

    Трек 2

    Имя файла D:\Documents and Settings\user\Рабочий стол\«»—0–\02 Dalai Lama Sparcles.wav

    Пиковый уровень 98.0 %
    Скорость извлечения 5.5 X
    Качество трека 100.0 %
    CRC теста F69DB931
    CRC копии F69DB931
    Копирование... OK

    Трек 3

    Имя файла D:\Documents and Settings\user\Рабочий стол\«»—0–\03 Dalai Lama Disco.wav

    Пиковый уровень 98.0 %
    Скорость извлечения 5.1 X
    Качество трека 100.0 %
    CRC теста F5D4E3D8
    CRC копии F5D4E3D8
    Копирование... OK

    Трек 4

    Имя файла D:\Documents and Settings\user\Рабочий стол\«»—0–\04 Dalai Lama Cosmos.wav

    Пиковый уровень 98.0 %
    Скорость извлечения 6.1 X
    Качество трека 100.0 %
    CRC теста 1FD7CC8C
    CRC копии 1FD7CC8C
    Копирование... OK

    Трек 5

    Имя файла D:\Documents and Settings\user\Рабочий стол\«»—0–\05 Dalai Lama Audrey Hepburn.wav

    Пиковый уровень 98.0 %
    Скорость извлечения 6.5 X
    Качество трека 100.0 %
    CRC теста BD9DE399
    CRC копии BD9DE399
    Копирование... OK

    Трек 6

    Имя файла D:\Documents and Settings\user\Рабочий стол\«»—0–\06 Dalai Lama Prison.wav

    Пиковый уровень 98.0 %
    Скорость извлечения 6.9 X
    Качество трека 100.0 %
    CRC теста 659764C2
    CRC копии 659764C2
    Копирование... OK

    Трек 7

    Имя файла D:\Documents and Settings\user\Рабочий стол\«»—0–\07 Dalai Lama Spirulina.wav

    Пиковый уровень 98.0 %
    Скорость извлечения 7.0 X
    Качество трека 100.0 %
    CRC теста C4343ECE
    CRC копии C4343ECE
    Копирование... OK

    Трек 8

    Имя файла D:\Documents and Settings\user\Рабочий стол\«»—0–\08 Dalai Lama Whales.wav

    Пиковый уровень 98.0 %
    Скорость извлечения 7.8 X
    Качество трека 100.0 %
    CRC теста 31844BB3
    CRC копии 31844BB3
    Копирование... OK

    Трек 9

    Имя файла D:\Documents and Settings\user\Рабочий стол\«»—0–\09 Dalai Lama Спортлото.wav

    Пиковый уровень 98.0 %
    Скорость извлечения 7.6 X
    Качество трека 100.0 %
    CRC теста A5C1E207
    CRC копии A5C1E207
    Копирование... OK

    Трек 10

    Имя файла D:\Documents and Settings\user\Рабочий стол\«»—0–\10 Dalai Lama Gales.wav

    Пиковый уровень 98.0 %
    Скорость извлечения 8.0 X
    Качество трека 100.0 %
    CRC теста 0510BC9B
    CRC копии 0510BC9B
    Копирование... OK

    Трек 11

    Имя файла D:\Documents and Settings\user\Рабочий стол\«»—0–\11 Dalai Lama Michael Jackson Knows (+ hidden track).wav

    Пиковый уровень 98.0 %
    Скорость извлечения 9.0 X
    Качество трека 100.0 %
    CRC теста 42802D39
    CRC копии 42802D39
    Копирование... OK

    Ошибок не произошло

    Конец отчёта

    ==== Контрольная сумма отчёта 7312A9BCEFB140378406CE0ECA122F33CD8FEC8CAE3A4A97694CDFBAA9AAD315 ====

Тривалість: 00:43:38
Мова: українська (1, 9), англійська (2-8, 10-11)
Аудіо-кодек: FLAC
Бітрейт: 826-1037 кб/с
Джерело: ріп із власного CD


Срібний реліз (на рейтинг впливає 50% завантаженого)
 Трекер:    Зареєстрований   

Завантажити / скачати українську музику



відео для новачків



 Зареєстрований:   2013-03-03 23:54
 Розмір:   298 MB 
 Оцінка музики:   7.7/10 (Голосів: 6)
   
Форкуш 
VIP


З нами з: 03.02.10
Востаннє: 08.12.16
Повідомлень: 1538

2013-03-04 07:06  
Такий гурт був...
Шкода.

somnambula 
Відео Гуртом - дизайнер
Відео Гуртом - дизайнер


З нами з: 06.11.09
Востаннє: 08.12.16
Повідомлень: 760

2013-03-04 09:12  
Та... мали багато гарних речей зробити, а після першого альбому розпалися. Ще пару цікавих пісеньок записали під назвою Kid Nap, а от що там далі їх спіткало не знаю((
musicfan 
Модератор музики


З нами з: 27.01.09
Востаннє: 05.12.16
Повідомлень: 893

2013-03-04 09:12  
Форкуш написано:
Такий гурт був...
Шкода.

Ех... дійсно шкода. "Audrey Hepburn" була чудовим відкриттям для мене, а ще більшим відкриттям було те що гурт український!

Форкуш 
VIP


З нами з: 03.02.10
Востаннє: 08.12.16
Повідомлень: 1538

2013-03-04 09:56  
somnambula написано:
Ще пару цікавих пісеньок записали під назвою Kid Nap

Можете якось залити десь? Цікаво послухати...

somnambula написано:
а от що там далі їх спіткало не знаю((

Павло коли від них пішов, то здається в Dracula drops D був солістом. Тут його інтерв'ю, причому дуже прогресивне і якісне. Чувак мислить добротно!
http://rozmova.wordpress.com/2012/04/03/%D0%BF%D0%B0%D0%B2%D0%BB%D0%BE-%D0%BC%D0%B0%D0%BB%D1%8C%D1%86%D0%B5%D0%B2-%D0%B1%D1%83%D0%B4%D1%8C-%D1%8F%D0%BA%D0%B0-%D0%BC%D1%83%D0%B7%D0%B8%D0%BA%D0%B0-%D1%86%D0%B5-%D0%B2-%D0%BF/

somnambula 
Відео Гуртом - дизайнер
Відео Гуртом - дизайнер


З нами з: 06.11.09
Востаннє: 08.12.16
Повідомлень: 760

2013-03-04 16:01  
Там нема що заливати - всього дві пісні. Вони є в загальному доступі на сайті групи http://kidnap.bandcamp.com/

Додано через 1 хвилину 2 секунди:

Та Dracula drops D теж знаю, все хотів піти на їхній концерт, але щось не склалося))

skamafia 
Частий відвідувач


З нами з: 29.09.09
Востаннє: 08.12.16
Повідомлень: 25

2013-03-04 16:18  
вокаліст Олександр зараз в immago на вокалі
musicfan 
Модератор музики


З нами з: 27.01.09
Востаннє: 05.12.16
Повідомлень: 893

2013-05-22 09:30  
Dalai Lama знову вийде на сцену!

Цитата:
Раді повідомити нашим друзям і шанувальникам про наш наразі єдиний ексклюзивний концерт після тривалої перерви. Гурт у повному складі можна буде побачити на фестивалі Захід, який пройде з 16 по 18 серпня.

Смішно, але нещодавно ми згадували партії і дописували недописані колись тексти, шукали старі гітарні процесори, аби повернути саме те звучання, за яким нас пам’ятають. Для нас це сильний, емоційний момент дружби і ностальгії. Сподіваємось, Ви розділите цей момент із нами.

Щиро, Ваші!

Ваш часовий пояс: GMT + 2 Години

Нова тема   Відповісти