Завантажити та скачати торренти українською


Singleton - Storms [EP] (2009) [FLAC] | Britpop / Indie

Нові коментарі

Нова тема   Відповісти
Автор Повідомлення
muhomor 
VIP


З нами з: 04.12.11
Востаннє: 10.12.16
Повідомлень: 297

2013-03-03 23:04  
Singleton - Storms [EP] (2009) [FLAC] | Britpop / Indie

Singleton - Storms [EP] (2009) [FLAC] | Britpop / Indie


Стиль: Britpop
Країна, місто: Україна, Київ
Сайти: Офіційний сайт
Видавець: Go Loud Records
Виконавці:
Аліна Федорова - вокал
Jim Walt - гітара
Дмитро Чудаков - бас-гітара
Богдан Киричок - ударні
Пісні:
    01. Storms
    02. Machines
    03. The One
    04. Evening Sun
    Audiochecker


    AUDIOCHECKER v2.0 beta (build 457) - by Dester - [email protected]
    ~~~~~~~~~~~~~~~~~~~~~~~~~~~~~~~~~~

    Started at: воскресенье, 03. 03. 2013. - 22:57.52
    4 files found

    1 -===- D:\hurtom.com\Singleton - «Storms» [EP] (2009) (FLAC)\01 Singleton Storms.flac
    Extracted successfully
    Conclusion: this track is CDDA with probability 100%
    Tempfile successfully deleted.

    2 -===- D:\hurtom.com\Singleton - «Storms» [EP] (2009) (FLAC)\02 Singleton Machines.flac
    Extracted successfully
    Conclusion: this track is CDDA with probability 100%
    Tempfile successfully deleted.

    3 -===- D:\hurtom.com\Singleton - «Storms» [EP] (2009) (FLAC)\03 Singleton The One.flac
    Extracted successfully
    Conclusion: this track is CDDA with probability 100%
    Tempfile successfully deleted.

    4 -===- D:\hurtom.com\Singleton - «Storms» [EP] (2009) (FLAC)\04 Singleton Evening Sun.flac
    Extracted successfully
    Conclusion: this track is CDDA with probability 100%
    Tempfile successfully deleted.

    Finished at: воскресенье, 03. 03. 2013. - 22:59.38 (operation time: 0:01.46)
    Log


    Exact Audio Copy V1.0 beta 3 from 29. August 2011

    Отчёт EAC об извлечении, выполненном 3. марта 2013, 22:51

    Singleton / Storms [EP]

    Дисковод: ASUS DRW-2014S1T Adapter: 2 ID: 8

    Режим чтения : Достоверность
    Использование точного потока : Да
    Отключение кэша аудио : Да
    Использование указателей C2 : Нет

    Коррекция смещения при чтении : 6
    Способность читать области Lead-in и Lead-out : Нет
    Заполнение пропущенных сэмплов тишиной : Да
    Удаление блоков с тишиной в начале и конце : Нет
    При вычислениях CRC использовались нулевые сэмплы : Да
    Интерфейс : Встроенный Win32-интерфейс для Win NT/2000
    Обработка зазоров : Добавлено к предыдущему треку

    Выходной формат : Пользовательский кодировщик
    Выбранный битрейт : 128 kBit/s
    Качество : Высокий
    Добавление ID3-тега : Нет
    Утилита сжатия : C:\Program Files\Exact Audio Copy\Flac\flac.exe
    Дополнительные параметры : -V -8 -T "Genre=%genre%" -T "Artist=%artist%" -T "Title=%title%" -T "Album=%albumtitle%" -T "Date=%year%" -T "Tracknumber=%tracknr%" -T "Comment=%comment%" %source%

    TOC извлечённого CD

    Трек | Старт | Длительность | Начальный сектор | Конечный сектор
    ---------------------------------------------------------------------
    1 | 0:00.00 | 4:26.26 | 0 | 19975
    2 | 4:26.26 | 4:08.01 | 19976 | 38576
    3 | 8:34.27 | 4:14.47 | 38577 | 57673
    4 | 12:48.74 | 2:38.26 | 57674 | 69549

    Трек 1

    Имя файла D:\Documents and Settings\user\Рабочий стол\«»—0–\01 Singleton Storms.wav

    Длина предзазора 0:00:02.00

    Пиковый уровень 93.6 %
    Скорость извлечения 5.1 X
    Качество трека 100.0 %
    CRC теста 1E04653F
    CRC копии 1E04653F
    Копирование... OK

    Трек 2

    Имя файла D:\Documents and Settings\user\Рабочий стол\«»—0–\02 Singleton Machines.wav

    Длина предзазора 0:00:02.00

    Пиковый уровень 94.3 %
    Скорость извлечения 5.0 X
    Качество трека 99.9 %
    CRC теста 4C439AEF
    CRC копии 4C439AEF
    Копирование... OK

    Трек 3

    Имя файла D:\Documents and Settings\user\Рабочий стол\«»—0–\03 Singleton The One.wav

    Длина предзазора 0:00:02.00

    Пиковый уровень 94.3 %
    Скорость извлечения 5.5 X
    Качество трека 99.9 %
    CRC теста 3A9DC63C
    CRC копии 3A9DC63C
    Копирование... OK

    Трек 4

    Имя файла D:\Documents and Settings\user\Рабочий стол\«»—0–\04 Singleton Evening Sun.wav

    Длина предзазора 0:00:02.00

    Пиковый уровень 94.3 %
    Скорость извлечения 5.2 X
    Качество трека 99.9 %
    CRC теста E016DC45
    CRC копии E016DC45
    Копирование... OK

    Ошибок не произошло

    Конец отчёта

    ==== Контрольная сумма отчёта B1729F4F0C2AC3C5A566872F4B579BE96871727C3988B0EF8C310FDA37FFCA18 ====

Тривалість: 00:15:26
Мова: англійська
Аудіо-кодек: FLAC
Бітрейт: 866-993 кб/с
Джерело: ріп із власного CD


Срібний реліз (на рейтинг впливає 50% завантаженого)
 Трекер:    Зареєстрований   

Завантажити / скачати українську музику



відео для новачків



 Зареєстрований:   2013-03-03 23:04
 Розмір:   105 MB 
 Оцінка музики:   7.8/10 (Голосів: 4)
   
Ваш часовий пояс: GMT + 2 Години

Нова тема   Відповісти