Завантажити та скачати торренти українською


The Pleroma - Шум [EP] (2013) [FLAC] | Shoegaze

Нові коментарі

Нова тема   Відповісти
Останній раз роздавалося Myfordownloads (2016-10-09)
Автор Повідомлення
muhomor 
VIP


З нами з: 04.12.11
Востаннє: 29.11.16
Повідомлень: 297

2013-03-03 22:19  
The Pleroma - Шум [EP] (2013) [FLAC] | Shoegaze

The Pleroma - Шум [EP] (2013) [FLAC] | Shoegaze


Стиль: Shoegaze
Країна, місто: Україна, Київ
Сайти: blogspot
Видавець: Prick Records / UA Undeground
Виконавці:
Костянтин aka DerryJable - вокал, гітари, програмування
Світлана aka Dlinnaya - вокал, бас-гітара, програмування
Пісні:
    01. Кімната
    02. Тіні
    03. Шум
    04. Кудись Йшов
    05. Цифрові Тенета
    06. Бреши Мені Вголос (Скрябін cover)
    Audiochecker

    AUDIOCHECKER v2.0 beta (build 457) - by Dester - [email protected]
    ~~~~~~~~~~~~~~~~~~~~~~~~~~~~~~~~~~

    Started at: воскресенье, 03. 03. 2013. - 22:11.38
    6 files found

    1 -===- D:\hurtom.com\The Pleroma - «Шум» (2013) (FLAC)\01 The Pleroma Кімната.flac
    Extracted successfully
    Conclusion: this track is CDDA with probability 100%
    Tempfile successfully deleted.

    2 -===- D:\hurtom.com\The Pleroma - «Шум» (2013) (FLAC)\02 The Pleroma Тіні.flac
    Extracted successfully
    Conclusion: this track is CDDA with probability 99%
    Tempfile successfully deleted.

    3 -===- D:\hurtom.com\The Pleroma - «Шум» (2013) (FLAC)\03 The Pleroma Шум.flac
    Extracted successfully
    Conclusion: this track is CDDA with probability 100%
    Tempfile successfully deleted.

    4 -===- D:\hurtom.com\The Pleroma - «Шум» (2013) (FLAC)\04 The Pleroma Кудись Йшов.flac
    Extracted successfully
    Conclusion: this track is CDDA with probability 100%
    Tempfile successfully deleted.

    5 -===- D:\hurtom.com\The Pleroma - «Шум» (2013) (FLAC)\05 The Pleroma Цифрові Тенета.flac
    Extracted successfully
    Conclusion: this track is CDDA with probability 99%
    Tempfile successfully deleted.

    6 -===- D:\hurtom.com\The Pleroma - «Шум» (2013) (FLAC)\06 The Pleroma Бреши Мені Вголос (Скрябін cover).flac
    Extracted successfully
    Conclusion: this track is CDDA with probability 100%
    Tempfile successfully deleted.

    Finished at: воскресенье, 03. 03. 2013. - 22:14.01 (operation time: 0:02.22)
    Log


    Exact Audio Copy V1.0 beta 3 from 29. August 2011

    Отчёт EAC об извлечении, выполненном 3. марта 2013, 21:05

    The Pleroma / Шум [EP]

    Дисковод: ASUS DRW-2014S1T Adapter: 2 ID: 8

    Режим чтения : Достоверность
    Использование точного потока : Да
    Отключение кэша аудио : Да
    Использование указателей C2 : Нет

    Коррекция смещения при чтении : 6
    Способность читать области Lead-in и Lead-out : Нет
    Заполнение пропущенных сэмплов тишиной : Да
    Удаление блоков с тишиной в начале и конце : Нет
    При вычислениях CRC использовались нулевые сэмплы : Да
    Интерфейс : Встроенный Win32-интерфейс для Win NT/2000
    Обработка зазоров : Добавлено к предыдущему треку

    Выходной формат : Пользовательский кодировщик
    Выбранный битрейт : 128 kBit/s
    Качество : Высокий
    Добавление ID3-тега : Нет
    Утилита сжатия : C:\Program Files\Exact Audio Copy\Flac\flac.exe
    Дополнительные параметры : -V -8 -T "Genre=%genre%" -T "Artist=%artist%" -T "Title=%title%" -T "Album=%albumtitle%" -T "Date=%year%" -T "Tracknumber=%tracknr%" -T "Comment=%comment%" %source%

    TOC извлечённого CD

    Трек | Старт | Длительность | Начальный сектор | Конечный сектор
    ---------------------------------------------------------------------
    1 | 0:00.00 | 3:34.41 | 0 | 16090
    2 | 3:34.41 | 3:00.47 | 16091 | 29637
    3 | 6:35.13 | 3:23.00 | 29638 | 44862
    4 | 9:58.13 | 3:19.11 | 44863 | 59798
    5 | 13:17.24 | 3:14.23 | 59799 | 74371
    6 | 16:31.47 | 3:29.23 | 74372 | 90069

    Трек 1

    Имя файла D:\Documents and Settings\user\Рабочий стол\«»—0–\01 The Pleroma Кімната.wav

    Длина предзазора 0:00:02.00

    Пиковый уровень 99.9 %
    Скорость извлечения 0.6 X
    Качество трека 100.0 %
    CRC теста CE99D7CF
    CRC копии CE99D7CF
    Копирование... OK

    Трек 2

    Имя файла D:\Documents and Settings\user\Рабочий стол\«»—0–\02 The Pleroma Тіні.wav

    Длина предзазора 0:00:01.74

    Пиковый уровень 99.7 %
    Скорость извлечения 0.6 X
    Качество трека 100.0 %
    CRC теста B790027B
    CRC копии B790027B
    Копирование... OK

    Трек 3

    Имя файла D:\Documents and Settings\user\Рабочий стол\«»—0–\03 The Pleroma Шум.wav

    Длина предзазора 0:00:01.74

    Пиковый уровень 89.8 %
    Скорость извлечения 0.6 X
    Качество трека 100.0 %
    CRC теста 4D895EFD
    CRC копии 4D895EFD
    Копирование... OK

    Трек 4

    Имя файла D:\Documents and Settings\user\Рабочий стол\«»—0–\04 The Pleroma Кудись Йшов.wav

    Длина предзазора 0:00:01.74

    Пиковый уровень 100.0 %
    Скорость извлечения 0.6 X
    Качество трека 100.0 %
    CRC теста 04399AE1
    CRC копии 04399AE1
    Копирование... OK

    Трек 5

    Имя файла D:\Documents and Settings\user\Рабочий стол\«»—0–\05 The Pleroma Цифрові Тенета.wav

    Длина предзазора 0:00:01.74

    Пиковый уровень 98.0 %
    Скорость извлечения 0.6 X
    Качество трека 100.0 %
    CRC теста 635EAC45
    CRC копии 635EAC45
    Копирование... OK

    Трек 6

    Имя файла D:\Documents and Settings\user\Рабочий стол\«»—0–\06 The Pleroma Бреши Мені Вголос (Скрябін cover).wav

    Длина предзазора 0:00:01.74

    Пиковый уровень 99.9 %
    Скорость извлечения 0.6 X
    Качество трека 100.0 %
    CRC теста 5208CEFE
    CRC копии 5208CEFE
    Копирование... OK

    Ошибок не произошло

    Конец отчёта

    ==== Контрольная сумма отчёта 7AA1036CCE168357844C9ED05E32614D22060253491A23720BEF5D81AB12FC03 ====

Тривалість: 00:19:59
Мова: українська
Аудіо-кодек: FLAC
Бітрейт: 835 кб/с
Джерело: ріп із власного CD
Додаткова інформація:
другий офіційний міні-альбом столичного інді-дуету. EP вийшов обмеженим тиражем у 50 екземплярів в форматі mini-CD. диск чудово оформлений та містить тексти пісень (переглянути яскраві фото фізичного примірника можна на офіційному блозі гурту).


Якщо Ви справді бажаєте підтримати українське - після прослуховування, якщо музика вам сподобалась, придбайте ліцензійний диск. Підтримаймо вітчизняних виконавців!


Срібний реліз (на рейтинг впливає 50% завантаженого)
 Трекер:    Зареєстрований   

Завантажити / скачати українську музику



відео для новачків



 Зареєстрований:   2013-03-03 22:19
 Розмір:   120 MB 
 Оцінка музики:   10/10 (Голосів: 2)
   
Ваш часовий пояс: GMT + 2 Години

Нова тема   Відповісти