Завантажити та скачати торренти українською


Ворон-месник / Ворон / The Crow (1994) 1080p Ukr/Eng | Sub Ukr/Eng

Нові коментарі

Нова тема   Відповісти
Автор Повідомлення
Anonymous 







2013-03-03 15:27  
Ворон-месник / Ворон / The Crow (1994) 1080p Ukr/Eng | Sub Ukr/Eng

Ворон-месник / Ворон / The Crow (1994) 1080p Ukr/Eng | Sub Ukr/Eng


Жанр: фентезі, трилер, бойовик
Країна: США



Кіностудія / кінокомпанія: Crowvision Inc., Edward R. Pressman Film
Режисер: Алекс Прояс (Alex Proyas)
Актори: Брендон Лі (Brandon Lee), Рошелль Девіс (Rochelle Davis), Ерні Гадсон (Ernie Hudson), Мішель Вінкотт (Michael Wincott), Лінґ Бей (Ling Bai), Девід Патрік Келлі (David Patrick Kelly) та інші.

Сюжет:
Це була похмура і страшна ніч. Ніч страшного свята "Дня всіх святих". Банда вбивць, увірвавшись в будинок молодої пари, жорстоко розправилася з рок-музикантом Еріком і його нареченою Шеллі.
Через рік Ерік Дрейвен вибирається з могили і вирушає на пошуки вбивць. Чи людина він? Ангел-винищувач? Або Ворон, що прагне помсти?


рейтинг MPAA: R - дітям до 17 років обов'язкова присутність батьків або дорослого опікуна
Вікова категорія: 16+

Тривалість: 01:41:29
Якість: 1080p
Відео:
кодек:
розмір кадру: 1920х1040
бітрейт: 11000 кб/с

Аудіо # 1:
мова: українська
переклад: двоголосий закадровий
кодек: 5.1
бітрейт: 448 кб/с

Аудіо # 2:
мова: англійська
переклад: оригінал
кодек: 5.1
бітрейт: 640 кб/с

Субтитри # 1:
мова: українська
тип: програмні (м'які)
формат: *.srt

Субтитри # 2:
мова: англійська
тип: програмні (м'які)
формат: *.srt

Збережені оригінальні розділи, як на Blu-ray
MediaInfo
General
Unique ID : 191157539563400978136948585084086774409 (0x8FCF9A5B3267A4BEBFE0A1FDA499EA89)
Complete name : The.Crow.1994..1080p.Ukr.Eng.mkv
Format : Matroska
Format version : Version 4 / Version 2
File size : 8.57 GiB
Duration : 1h 41mn
Overall bit rate : 12.1 Mbps
Movie name : Ворон-месник / Ворон / The Crow (1994)
Encoded date : UTC 2013-03-02 17:28:08
Writing application : mkvmerge v6.0.0 ('Coming Up For Air') built on Jan 20 2013 09:52:00
Writing library : libebml v1.3.0 + libmatroska v1.4.0

Video
ID : 1
Format : AVC
Format/Info : Advanced Video Codec
Format profile : [email protected]
Format settings, CABAC : Yes
Format settings, ReFrames : 4 frames
Codec ID : V_MPEG4/ISO/AVC
Duration : 1h 41mn
Bit rate : 11.0 Mbps
Width : 1 920 pixels
Height : 1 040 pixels
Display aspect ratio : 1.85:1
Frame rate mode : Constant
Frame rate : 23.976 fps
Color space : YUV
Chroma subsampling : 4:2:0
Bit depth : 8 bits
Scan type : Progressive
Bits/(Pixel*Frame) : 0.230
Stream size : 7.62 GiB (89%)
Title : rip by K.A.F., release by igor911 [Hurtom]
Writing library : core 129 r2245 bc13772
Encoding settings : cabac=1 / ref=4 / deblock=1:-3:-3 / analyse=0x3:0x133 / me=tesa / subme=11 / psy=1 / psy_rd=1.00:0.11 / mixed_ref=1 / me_range=48 / chroma_me=1 / trellis=2 / 8x8dct=1 / cqm=0 / deadzone=21,11 / fast_pskip=0 / chroma_qp_offset=-3 / threads=12 / lookahead_threads=2 / sliced_threads=0 / nr=0 / decimate=0 / interlaced=0 / bluray_compat=0 / constrained_intra=0 / bframes=3 / b_pyramid=2 / b_adapt=2 / b_bias=0 / direct=3 / weightb=1 / open_gop=0 / weightp=2 / keyint=240 / keyint_min=23 / scenecut=40 / intra_refresh=0 / rc_lookahead=60 / rc=2pass / mbtree=1 / bitrate=11000 / ratetol=1.0 / qcomp=0.60 / qpmin=0 / qpmax=69 / qpstep=4 / cplxblur=20.0 / qblur=0.5 / ip_ratio=1.40 / aq=1:1.00
Language : English
Default : Yes
Forced : No

Audio #1
ID : 2
Format : AC-3
Format/Info : Audio Coding 3
Mode extension : CM (complete main)
Format settings, Endianness : Big
Codec ID : A_AC3
Duration : 1h 41mn
Bit rate mode : Constant
Bit rate : 448 Kbps
Channel(s) : 6 channels
Channel positions : Front: L C R, Side: L R, LFE
Sampling rate : 48.0 KHz
Bit depth : 16 bits
Compression mode : Lossy
Delay relative to video : 20ms
Stream size : 325 MiB (4%)
Title : DVO Novyj [Hurtom-robotron005, olgaya, MAKAPOHHIK]
Language : Ukrainian
Default : Yes
Forced : No

Audio #2
ID : 3
Format : AC-3
Format/Info : Audio Coding 3
Mode extension : CM (complete main)
Format settings, Endianness : Big
Codec ID : A_AC3
Duration : 1h 41mn
Bit rate mode : Constant
Bit rate : 640 Kbps
Channel(s) : 6 channels
Channel positions : Front: L C R, Side: L R, LFE
Sampling rate : 48.0 KHz
Bit depth : 16 bits
Compression mode : Lossy
Delay relative to video : 15ms
Stream size : 465 MiB (5%)
Title : Original
Language : English
Default : No
Forced : No

Text #1
ID : 4
Format : UTF-8
Codec ID : S_TEXT/UTF8
Codec ID/Info : UTF-8 Plain Text
Title : Ukr full [Hurtom-Voron16]
Language : Ukrainian
Default : No
Forced : No

Text #2
ID : 5
Format : UTF-8
Codec ID : S_TEXT/UTF8
Codec ID/Info : UTF-8 Plain Text
Title : Eng full
Language : English
Default : No
Forced : No

Menu
00:00:00.000 : en:Opening Credits; Devil's Night
00:04:21.000 : en:1 Year Later
00:16:44.000 : en:"Bad people out on the street tonight"
00:21:54.000 : en:All Made Up
00:35:17.000 : en:"Victims aren't we all"
00:44:27.000 : en:"Creatures of the night"
00:48:30.000 : en:"Is that gasoline I smell?"
00:51:28.000 : en:"It can't rain all the time"
00:59:33.000 : en:"Your daughter's waiting for you on the streets"
01:01:01.000 : en:"I saw her through your eyes"
01:02:23.000 : en:T-Bird's Passenger
01:05:51.000 : en:"There ain't no comin' back"
01:07:06.000 : en:The Dead Can't Come Back
01:08:30.000 : en:The Avenger
01:17:48.000 : en:"Kill the Crow and Destroy the Man"
01:21:04.000 : en:Every Man's Devil
01:32:45.000 : en:Reunited!
01:34:10.000 : en:End Credits
[info]: frame I:1382 Avg QP:15.72 size:146986
[info]: frame P:47363 Avg QP:18.50 size: 78059
[info]: frame B:97247 Avg QP:19.70 size: 45944




Джерела та подяки: &
ріп відео, оригінальні доріжка і саби - K.A.F. (рутор); українська доріжка - зведення robotron005, запис з ТБ olgaya та MAKAPOHHIK, українські субтитри - переклад Voron16, український постер - Тирік (всі - Гуртом)





ЗАЛИШАЙТЕСЬ ЯКОМОГА ДОВШЕ НА РОЗДАЧІ!

СКАЧАВ САМ - ДАЙ СКАЧАТИ ІНШИМ


Срібний реліз (на рейтинг впливає 50% завантаженого)
 Трекер:    Зареєстрований   

Завантажити / скачати фільм українською



відео для новачків



 Зареєстрований:   2013-03-03 15:27
 Розмір:   8.57 GB 
 Оцінка фільму:   6.5/10 (Голосів: 26)
   
Anonymous 







2013-03-03 15:55  
НЕ ТІКАЙТЕ З РОЗДАЧІ!
СКАЧАВ САМ - ДАЙ СКАЧАТИ ІНШИМ

Toky 
Свій


З нами з: 06.07.09
Востаннє: 05.12.16
Повідомлень: 105

2013-10-20 09:28  
дайте роздачу блін!!!! І ще питання чи є якась менш об’ємна версія цього фільму?
ratbol 
Модератор HD


З нами з: 03.02.09
Востаннє: 01.12.16
Повідомлень: 1088

2013-10-20 09:51  
Toky написано:
Ворон / The Crow (1994) AVC Eng | sub Ukr

користуйтесь пошуком сайту
http://toloka.to/t16758

vaikesh 
Новенький


З нами з: 03.07.12
Востаннє: 05.12.16
Повідомлень: 3

2015-01-08 18:57  
Що до постеру: хіба є слово "ангел" в українській мові? Янгол. "Повір у янголів"
Anonymous 







2015-01-08 19:01  
Ваш часовий пояс: GMT + 2 Години

Нова тема   Відповісти