Завантажити та скачати торренти українською


Життя в рожевому кольорі / La môme / La Vie en Rose (2007) 720p Ukr/Fra

Нові коментарі

Нова тема   Відповісти
Автор Повідомлення
chaoscor 
Свій


З нами з: 17.10.10
Востаннє: 03.12.16
Повідомлень: 73

2013-03-03 14:25  
Життя в рожевому кольорі / La môme / La Vie en Rose (2007) 720p Ukr/Fra

Життя в рожевому кольорі / La môme / La Vie en Rose (2007) 720p Ukr/Fra


Жанр: біографічний, драма, музичний
Країна: Франція, Канада, Великобританія, Чехія



Режисер: Олів'є Даан
Актори: Маріон Котійяр, Сільві Тестуд, Паскаль Грегорі, Еммануель Сеньє, Жан-Поль Руве, Жерар Депардьє, Клотільда Каро, Жан-П'єр Мартінс, Катерина Аллегре

Сюжет:
Життя Едіт Піаф було схоже на битву, щодня їй доводилося боротися за право жити, співати і любити! З трущоб Парижа вона піднялася на підмостки Нью-Йоркських концертних залів і заволоділа серцями всього світу. Її друзями були відомі люди того часу - Жан Кокто, Марлен Дітріх, Марсель Сердан. Піаф, яка виросла в страшній убогості, досягла колосального успіху. Але, злетівши на недосяжну висоту, вона не змогла не обламати крила ...
нагороди
2008 — Премія «Оскар»
Кращий грим
Краща актриса — Маріон Котіяр

2008 — Премія BAFTA
Краща актриса — Маріон Котіяр
Кращий грим
Кращі костюми
Найкраща музика — Крістофер Ганнінг

2008 — Премія «Сезар»
Краща актриса — Маріон Котіяр
Краща операторська робота — Тецуо Нагата
Кращі костюми
Кращий звук
Кращі декорації

2008 — Премія «Золотий глобус»
Краща актриса музичного чи комедійного фільму — Маріон Котіяр

2008 — Премія «Люм'єр»
Краща актриса — Маріон Котіяр
Приз глядачів — Олів'є Даан
Тривалість: 02:20:16
Якість:
Відео:
кодек:
розмір кадру: 1280 х 548
бітрейт: 5165 кб/с

Аудіо # 1:
мова: українська
переклад: багатоголосий закадровий
кодек: 5.1
бітрейт: 448 кб/с
переклад виконано і озвучено: Автор-студія на замовлення Аврора Дистрибюшен, запис звуку з телеканалу А/ТВК
доріжку взято з релізу wrongfunction

Аудіо # 2:
мова: французька
переклад: оригінал
кодек: 5.1
бітрейт: 1510 кб/с
MediaInfo
N:\фільми - гуртом\La Vie en Rose (2007) 720p UkrFra.mkv
General
Complete name : N:\фільми - гуртом\La Vie en Rose (2007) 720p UkrFra.mkv
Format : Matroska
File size : 6.98 GiB
Duration : 2h 20mn
Overall bit rate : 7 125 Kbps
Movie name : La.Mome.2007.720p.BluRay..-ESiR
Encoded date : UTC 2013-03-03 09:48:48
Writing application : mkvmerge v5.2.1 ('A Far Off Place') built on Jan 2 2012 23:21:10
Writing library : libebml v1.2.3 + libmatroska v1.3.0
Cover : Yes / Yes / Yes
Video #1
ID : 1
Format : AVC
Format/Info : Advanced Video Codec
Format profile : [email protected]
Format settings, CABAC : Yes
Format settings, ReFrames : 6 frames
Muxing mode : Container [email protected]
Codec ID : V_MPEG4/ISO/AVC
Duration : 2h 20mn
Bit rate : 5 165 Kbps
Width : 1 280 pixels
Height : 548 pixels
Display aspect ratio : 2.35:1
Frame rate : 23.976 fps
Color space : YUV
Chroma subsampling : 4:2:0
Bit depth : 8 bits
Scan type : Progressive
Bits/(Pixel*Frame) : 0.307
Stream size : 4.92 GiB (71%)
Title : Release for HDClub
Writing library : core 58 svn-736M
Encoding settings : cabac=1 / ref=6 / deblock=1:-3:-3 / analyse=0x3:0x133 / me=umh / subme=7 / me-prepass=0 / brdo=1 / mixed_ref=1 / me_range=24 / chroma_me=1 / trellis=0 / 8x8dct=1 / cqm=2 / deadzone=9,9 / chroma_qp_offset=0 / threads=6 / nr=0 / decimate=0 / mbaff=0 / bframes=2 / b_pyramid=1 / b_adapt=1 / b_bias=0 / direct=1 / wpredb=1 / bime=1 / keyint=250 / keyint_min=25 / scenecut=40(pre) / rc=2pass / bitrate=5165 / ratetol=1.0 / rceq='blurCplx^(1-qComp)' / qcomp=1.00 / qpmin=10 / qpmax=51 / qpstep=4 / cplxblur=20.0 / qblur=0.5 / ip_ratio=1.40 / pb_ratio=1.30 / aq=1:0.6:15.0
Language : French
Audio #2
ID : 2
Format : AC-3
Format/Info : Audio Coding 3
Mode extension : CM (complete main)
Codec ID : A_AC3
Duration : 2h 20mn
Bit rate mode : Constant
Bit rate : 448 Kbps
Channel(s) : 6 channels
Channel positions : Front: L C R, Side: L R, LFE
Sampling rate : 48.0 KHz
Bit depth : 16 bits
Stream size : 450 MiB (6%)
Language : Ukrainian
Audio #3
ID : 3
Format :
Format/Info : Digital Theater Systems
Codec ID : A_DTS
Duration : 2h 20mn
Bit rate mode : Constant
Bit rate : 1 510 Kbps
Channel(s) : 6 channels
Channel positions : Front: L C R, Side: L R, LFE
Sampling rate : 48.0 KHz
Bit depth : 24 bits
Stream size : 1.48 GiB (21%)
Title : 5.1 @ 1.5 mbit
Language : French
Скріншоти


Джерело: &
Особиста оцінка: 10 - без зайвих вагань рекомендую всім!

Український постер - bilenkuyboy


 Трекер:    Зареєстрований   

Завантажити / скачати фільм українською



відео для новачків



 Зареєстрований:   2013-03-03 14:25
 Розмір:   6.98 GB 
 Оцінка фільму:   8.3/10 (Голосів: 8)
   
Інші релізи
Ваш часовий пояс: GMT + 2 Години

Нова тема   Відповісти