Завантажити та скачати торренти українською


Сiм / Seven / Se7en (1995) 1080p Ukr/Eng | Sub Eng

Нові коментарі

Нова тема   Відповісти
Автор Повідомлення
Anonymous 







2013-03-02 14:02  
Сiм / Seven / Se7en (1995) 1080p Ukr/Eng | Sub Eng

Сiм / Seven / Se7en (1995) 1080p Ukr/Eng | Sub Eng


Жанр: трилер, кримінал, детектив
Країна: США

IMBD Top 250 #22

Кіностудія / кінокомпанія: New Line Cinema
Режисер: Девід Фінчер / David Fincher
Актори: Бред Піт / Brad Pitt, Морган Фрімен / Morgan Freeman, Гвінет Пелтроу / Gwyneth Paltrow, Кевін Спейсі / Kevin Spacey та інші.

Сюжет:
У основі фільму лежить поліцейське розслідування серії кривавих вбивств, здійснених маніяком. Кожне вбивство карає жертву за певні смертні гріхи. У Біблії описано сім таких гріхів, і зупинити страшний ланцюг вбивств під силу тільки ветерану Нью-йоркській поліції і його енергійному молодому напарнику. Захоплюючий сюжет, яскрава акторська гра, натуралізм фільму - все це тримає глядача в напрузі до останнього кадру.


рейтинг MPAA: R - дітям до 17 років обов'язкова присутність батьків або дорослого опікуна
Вікова категорія: 18+

Тривалість: 02:06:54
Якість: 1080p
Відео:
кодек:
розмір кадру: 1920x800
бітрейт: 7475 кб/с

Аудіо # 1:
мова: українська
переклад: багатоголосий закадровий
кодек: 5.1
бітрейт: 384 кб/с

Аудіо # 2:
мова: англійська
переклад: оригінал
кодек: 5.1
бітрейт: 640 кб/с

Субтитри:
мова: англійська
тип: програмні (м'які)
формат: *.srt

Збережено оригінальні розділи, як на Blu-ray.
MediaInfo
General
Unique ID : 208003780592243953505658755692541733259 (0x9C7C122A5BB5EC4DA0A3F310309B698B)
Complete name : Se7en.1995..1080p.Ukr.Eng.mkv
Format : Matroska
Format version : Version 4 / Version 2
File size : 7.53 GiB
Duration : 2h 6mn
Overall bit rate : 8 497 Kbps
Movie name : Сiм / Seven / Se7en / Семь (1995)
Encoded date : UTC 2013-03-01 20:10:26
Writing application : mkvmerge v6.0.0 ('Coming Up For Air') built on Jan 20 2013 09:52:00
Writing library : libebml v1.3.0 + libmatroska v1.4.0

Video
ID : 1
Format : AVC
Format/Info : Advanced Video Codec
Format profile : [email protected]
Format settings, CABAC : Yes
Format settings, ReFrames : 5 frames
Codec ID : V_MPEG4/ISO/AVC
Duration : 2h 6mn
Bit rate : 7 475 Kbps
Width : 1 920 pixels
Height : 800 pixels
Display aspect ratio : 2.40:1
Frame rate mode : Constant
Frame rate : 23.976 fps
Color space : YUV
Chroma subsampling : 4:2:0
Bit depth : 8 bits
Scan type : Progressive
Bits/(Pixel*Frame) : 0.203
Stream size : 6.48 GiB (86%)
Title : Rip by Boriy, release by igor911 [Hurtom]
Writing library : core 129 r2245 bc13772
Encoding settings : cabac=1 / ref=5 / deblock=1:-3:-3 / analyse=0x3:0x113 / me=umh / subme=10 / psy=1 / psy_rd=1.00:0.10 / mixed_ref=1 / me_range=32 / chroma_me=1 / trellis=2 / 8x8dct=1 / cqm=0 / deadzone=21,11 / fast_pskip=0 / chroma_qp_offset=-2 / threads=12 / lookahead_threads=2 / sliced_threads=0 / nr=0 / decimate=0 / interlaced=0 / bluray_compat=0 / constrained_intra=0 / bframes=5 / b_pyramid=2 / b_adapt=2 / b_bias=0 / direct=3 / weightb=1 / open_gop=0 / weightp=2 / keyint=240 / keyint_min=23 / scenecut=40 / intra_refresh=0 / rc=2pass / mbtree=0 / bitrate=7475 / ratetol=1.0 / qcomp=0.60 / qpmin=0 / qpmax=69 / qpstep=4 / cplxblur=20.0 / qblur=0.5 / ip_ratio=1.40 / pb_ratio=1.30 / aq=1:0.80
Language : English
Default : Yes
Forced : No

Audio #1
ID : 2
Format : AC-3
Format/Info : Audio Coding 3
Mode extension : CM (complete main)
Format settings, Endianness : Big
Codec ID : A_AC3
Duration : 2h 6mn
Bit rate mode : Constant
Bit rate : 384 Kbps
Channel(s) : 6 channels
Channel positions : Front: L C R, Side: L R, LFE
Sampling rate : 48.0 KHz
Bit depth : 16 bits
Compression mode : Lossy
Delay relative to video : 1s 875ms
Stream size : 349 MiB (5%)
Title : MVO Inter 5.1 384 kbps [Hurtom-tarick, urij546724]
Language : Ukrainian
Default : Yes
Forced : No

Audio #2
ID : 3
Format : AC-3
Format/Info : Audio Coding 3
Mode extension : CM (complete main)
Format settings, Endianness : Big
Codec ID : A_AC3
Duration : 2h 6mn
Bit rate mode : Constant
Bit rate : 640 Kbps
Channel(s) : 6 channels
Channel positions : Front: L C R, Side: L R, LFE
Sampling rate : 48.0 KHz
Bit depth : 16 bits
Compression mode : Lossy
Stream size : 581 MiB (8%)
Title : original
Language : English
Default : No
Forced : No

Text
ID : 4
Format : UTF-8
Codec ID : S_TEXT/UTF8
Codec ID/Info : UTF-8 Plain Text
Language : English
Default : No
Forced : No

Menu
00:00:00.000 : :The Last Seven Days
00:04:11.251 : :Main Titles
00:06:19.253 : :Monday
00:07:33.744 : :Gluttony
00:14:47.511 : :Someone Wants Out
00:17:07.443 : :Tuesday
00:18:11.465 : :Greed
00:21:42.175 : :Seven Deadly Sins
00:24:26.756 : :Hitting The Books
00:29:28.516 : :Wednesday
00:30:27.033 : :Close Quarters
00:33:13.157 : :A Late Supper
00:37:28.454 : :Forced Attrition
00:42:23.541 : :Mrs. Gould
00:43:32.860 : :Help Me
00:47:43.235 : :Thursday
00:50:18.390 : :Sloth
00:54:24.803 : :Feeding Off His Emotions
00:57:28.194 : :Friday
01:01:45.159 : :Methodical, Exacting and Patient
01:04:19.605 : :Who's Reading What
01:07:26.584 : :John Doe
01:14:45.022 : :A Reason to Knock
01:20:34.037 : :"I Admire You"
01:24:07.250 : :Saturday
01:25:04.140 : :Lust
01:28:15.498 : :Apathy is Easy
01:33:05.162 : :Sunday, Pride
01:33:58.799 : :Surrender
01:36:46.967 : :The Deal
01:39:04.480 : :Ready to Move
01:40:53.797 : :"You Won't Miss a Thing"
01:44:05.030 : :The Chosen One
01:50:53.855 : :"It's Close"
01:53:06.196 : :The Package
01:56:56.634 : :Envy and Wrath
02:02:00.313 : :End Credits


Джерело: ріп відео, оригінальна доріжка - boriy (рутор), українська доріжка - tarick (зведення) та urij546724 (запис з ТБ); постер - hellforces (всі - Гуртом)


Срібний реліз (на рейтинг впливає 50% завантаженого)
 Трекер:    Зареєстрований   

Завантажити / скачати фільм українською



відео для новачків



 Зареєстрований:   2013-03-02 14:02
 Розмір:   7.53 GB 
 Оцінка фільму:   7.1/10 (Голосів: 34)
   
Інші релізи
   Сiм / Seven / Se7en (1995) patriot2305  3 / 0   1.29 GB   2013-07-17 11:16 
   Сiм / Seven / Se7en (1995) Blu-ray Remux 1080p Ukr/Eng | Sub Eng Dim-ON  1 / 0   27.71 GB   2011-10-09 00:57 
   Сiм / Seven / Se7en (1995) 720p Ukr/Eng | Sub Eng Dim-ON  6 / 0   6.23 GB   2011-10-08 00:46 
   Сiм / Seven / Se7en (1995) Ukr/Eng Snooppy  12 / 0   2.18 GB   2010-05-07 17:18 
Drakoshka 
Localize Team
Localize Team


З нами з: 12.01.13
Востаннє: 03.12.16
Повідомлень: 66

2013-03-27 22:10  
ну...шедевр, що тут скажеш. з величезним задоволенням переглянула ще раз, дякую!
Wizard_Harry 
Свій


З нами з: 11.10.13
Востаннє: 06.12.16
Повідомлень: 111

2015-02-19 19:35  
Сильний фільм, емоції, дякую
boroznaya 
VIP


З нами з: 02.11.12
Востаннє: 06.12.16
Повідомлень: 1874

2015-08-22 10:27  
Спасибі! Надзвичайно цікавий фільм, забираю!
Ваш часовий пояс: GMT + 2 Години

Нова тема   Відповісти