Завантажити та скачати торренти українською


Найп'янкіший округ у світі / Lawless [International Cut] (2012) 1080p Ukr/Eng | Sub Ukr/Eng

Нові коментарі

Нова тема   Відповісти
Автор Повідомлення
Anonymous 







2013-03-01 02:27  
Найп'янкіший округ у світі / Lawless [International Cut] (2012) 1080p Ukr/Eng | Sub Ukr/Eng


Найп'янкіший округ у світі / Lawless [International Cut] (2012) 1080p Ukr/Eng | Sub Ukr/Eng


Жанр: кримінальний, драма
Країна: США



Кіностудія / кінокомпанія: Benaroya Pictures, FilmNation Entertainment, Annapurna Pictures
Режисер: Джон Гіллкоут / John Hillcoat
Актори: Шиа ЛаБеф / Shia LaBeouf, Том Гарді / Tom Hardy, Джейсон Кларк / Jason Clarke, Ґай Пірс / Guy Pearce, Джессіка Честейн / Jessica Chastain, Міа Васіковска / Mia Wasikowska, Дейн ДеГаан / Dane DeHaan, Кріс МакҐеррі / Chris McGarry, Тім Толін / Tim Tolin, Ґарі Олдман / Gary Oldman, Лью Темпл / Lew Temple, Маркус Гестер / Marcus Hester, Білл Кемп / Bill Camp, Алекс Ван / Alex Van, Ноа Тейлор / Noah Taylor

Сюжет:
Сім’я Бондурант займається забороненим бізнесом. Вони бутлегери на амереканському Півдні за часів сухого закону і Великої Деперсії. Наймолодший з братів Бондурант Джек сподівається заробити грошей і вразити свою кохану Берту.Але його старший брат Форрест на такий оптиміст. Він мовчазний і підозрілий, а третьому братові Говарду часто доводиться мати справу з ворогами незаконного сімейного бізнесу – корумпованими місцевими поліцейськими.


рейтинг MPAA: R - дітям до 17 років обов'язкова присутність батьків або дорослого опікуна

Міжнародна версія фільму. Трохи змінено текст у деяких місцях та більше кривавих сцен.

Тривалість: 01:56:03
Якість: 1080p
Відео:
кодек:
розмір кадру: 1920x800
бітрейт: 8235 кб/с

Аудіо # 1:
мова: українська
переклад: професійний дубльований
кодек: 5.1
бітрейт: 448 кб/с

Аудіо # 2:
мова: англійська
переклад: оригінал
кодек: 5.1
бітрейт: 448 кб/с

Субтитри #1:
мова: українська
тип: програмні (м'які)
формат: *.srt

Субтитри #2:
мова: англійська
тип: програмні (м'які)
формат: *.srt

Збережено оригінальні розділи, як на Blu-ray.
MediaInfo
General
Unique ID : 197062397447660479097690792367739134429 (0x9440D653C4F3FE16A9AA364B02E861DD)
Complete name : Lawless.2012..1080p.Ukr.Eng.mkv
Format : Matroska
Format version : Version 4 / Version 2
File size : 7.40 GiB
Duration : 1h 56mn
Overall bit rate : 9 100 Kbps
Movie name : Найп'янкіший округ у світі / Lawless (2012) | International Cut
Encoded date : UTC 2013-02-28 23:13:44
Writing application : mkvmerge v6.0.0 ('Coming Up For Air') built on Jan 20 2013 09:52:00
Writing library : libebml v1.3.0 + libmatroska v1.4.0

Video
ID : 1
Format : AVC
Format/Info : Advanced Video Codec
Format profile : [email protected]
Format settings, CABAC : Yes
Format settings, ReFrames : 5 frames
Codec ID : V_MPEG4/ISO/AVC
Duration : 1h 56mn
Bit rate : 8 233 Kbps
Width : 1 920 pixels
Height : 800 pixels
Display aspect ratio : 2.40:1
Frame rate mode : Constant
Frame rate : 23.976 fps
Color space : YUV
Chroma subsampling : 4:2:0
Bit depth : 8 bits
Scan type : Progressive
Bits/(Pixel*Frame) : 0.224
Stream size : 6.52 GiB (88%)
Title : rip by AlexKa, release igor911 [Hurtom]
Writing library : core 129 r2245 bc13772
Encoding settings : cabac=1 / ref=5 / deblock=1:-3:-3 / analyse=0x3:0x133 / me=umh / subme=10 / psy=1 / psy_rd=1.00:0.00 / mixed_ref=1 / me_range=32 / chroma_me=1 / trellis=2 / 8x8dct=1 / cqm=0 / deadzone=21,11 / fast_pskip=0 / chroma_qp_offset=-2 / threads=12 / lookahead_threads=2 / sliced_threads=0 / nr=0 / decimate=0 / interlaced=0 / bluray_compat=0 / constrained_intra=0 / bframes=5 / b_pyramid=2 / b_adapt=2 / b_bias=0 / direct=3 / weightb=1 / open_gop=0 / weightp=2 / keyint=240 / keyint_min=23 / scenecut=40 / intra_refresh=0 / rc=2pass / mbtree=0 / bitrate=8233 / ratetol=1.0 / qcomp=0.60 / qpmin=0 / qpmax=69 / qpstep=4 / cplxblur=20.0 / qblur=0.5 / ip_ratio=1.40 / pb_ratio=1.30 / aq=1:0.80
Language : English
Default : Yes
Forced : No

Audio #1
ID : 2
Format : AC-3
Format/Info : Audio Coding 3
Mode extension : CM (complete main)
Format settings, Endianness : Big
Codec ID : A_AC3
Duration : 1h 56mn
Bit rate mode : Constant
Bit rate : 448 Kbps
Channel(s) : 6 channels
Channel positions : Front: L C R, Side: L R, LFE
Sampling rate : 48.0 KHz
Bit depth : 16 bits
Compression mode : Lossy
Stream size : 373 MiB (5%)
Title : Dub 5.1 448 kbps
Language : Ukrainian
Default : Yes
Forced : No

Audio #2
ID : 3
Format : AC-3
Format/Info : Audio Coding 3
Mode extension : CM (complete main)
Format settings, Endianness : Big
Codec ID : A_AC3
Duration : 1h 56mn
Bit rate mode : Constant
Bit rate : 448 Kbps
Channel(s) : 6 channels
Channel positions : Front: L C R, Side: L R, LFE
Sampling rate : 48.0 KHz
Bit depth : 16 bits
Compression mode : Lossy
Stream size : 373 MiB (5%)
Title : Original
Language : English
Default : No
Forced : No

Text #1
ID : 4
Format : UTF-8
Codec ID : S_TEXT/UTF8
Codec ID/Info : UTF-8 Plain Text
Title : Ukr full [Delight, igor911 - Hutrom]
Language : Ukrainian
Default : Yes
Forced : No

Text #2
ID : 5
Format : UTF-8
Codec ID : S_TEXT/UTF8
Codec ID/Info : UTF-8 Plain Text
Title : Eng full
Language : English
Default : No
Forced : No

Menu
00:00:00.000 : :Chapter 01
00:04:36.818 : :Chapter 02
00:09:16.638 : :Chapter 03
00:14:39.587 : :Chapter 04
00:21:55.689 : :Chapter 05
00:26:34.342 : :Chapter 06
00:34:23.895 : :Chapter 07
00:41:06.964 : :Chapter 08
00:48:30.825 : :Chapter 09
00:56:45.652 : :Chapter 10
01:05:11.073 : :Chapter 11
01:11:21.903 : :Chapter 12
01:19:30.724 : :Chapter 13
01:25:00.887 : :Chapter 14
01:31:49.838 : :Chapter 15
01:37:32.889 : :Chapter 16
01:44:44.737 : :Chapter 17
01:49:07.708 : :Chapter 18
[info]: frame I:1207 Avg QP:17.63 size:246700
[info]: frame P:35747 Avg QP:19.80 size: 80467
[info]: frame B:129997 Avg QP:21.87 size: 30691


Джерело: ріп відео, оригінальна доріжка і саби - AlexKa (рутор), українська доріжка - HQ-ViDEO, українські саби - переклад Delight` (Гуртом) + я змінив таймінг під міжнародну версію та трохи відредагував.


 Трекер:    Зареєстрований   

Завантажити / скачати фільм українською



відео для новачків



 Зареєстрований:   2013-03-01 02:27
 Розмір:   7.4 GB 
 Оцінка фільму:   6.8/10 (Голосів: 32)
   
Anonymous 







2013-03-01 02:30  
Українські субтитри далекі від ідеалу, але дивитись можна.
ratbol 
Модератор HD


З нами з: 03.02.09
Востаннє: 01.12.16
Повідомлень: 1088

2013-03-01 08:18  
Є укр , чому не додали?
Anonymous 







2013-03-01 08:21  
Залишив для релізу з бітрейтом over 9999

Додано через 36 секунд:

або для ремукса

Wizard_Harry 
Свій


З нами з: 11.10.13
Востаннє: 02.12.16
Повідомлень: 111

2015-10-02 10:45  
Цікавий фільм, мені сподобався, дякую)
Shiver2005 
Свій


З нами з: 01.02.09
Востаннє: 01.12.16
Повідомлень: 108

2015-10-03 11:15  
Дивився давно. Можна було сюжет і серйозніше.
EduardGol 
Поважний учасник


З нами з: 03.10.13
Востаннє: 02.12.16
Повідомлень: 162

2016-01-21 19:24  
Продивився із задоволенням.
Ваш часовий пояс: GMT + 2 Години

Нова тема   Відповісти