Завантажити та скачати торренти українською


VA - Мелодії України 2 (2004) [FLAC] | Pop

Нові коментарі

Нова тема   Відповісти
Автор Повідомлення
civ 
VIP


З нами з: 16.02.11
Востаннє: 02.12.16
Повідомлень: 428

2013-02-28 19:30  
VA - Мелодії України 2 (2004) [FLAC] | Pop

VA - Мелодії України 2 (2004) [FLAC] | Pop


Стиль: Pop
Країна: Україна
Видавець: Taras Bulba Entertainment

Пісні:
    01. Назарій Яремчук - Квітка папороті
    02. Назарій Яремчук, ВІА «Смерічка» - Одинокий вожак
    03. Лілія Сандулеса - Повік не одцвіте
    04. Лілія Сандулеса, Іво Бобул - Берег любові
    05. Людмила Артеменко, ВІА «Водограй» - Зачаруй
    06. Тетяна Русова - Журавочка
    07. Олександр Гаркавий, гурт «Світ» - Мамина коса
    08. Софія Ротару - Пробач, прощай
    09. Софія Ротару, ВІА «Червона рута» - Тече вода
    10. Тріо Маренич - Тиша навкруги
    11. Роман Копов, група «Міраж» - В човнику твоїх долонь
    12. ВІА «Кобза» - Запитай у серця
    13. Віталій Білоножко, Алла Кудлай, група «Міраж» - Стоїть тополя
    14. Оксана Хожай, Валерій Пацеєв, група «Варіант» - З тобою поруч
    15. Василь Зінкевич, ВІА «Світязь» - Скрипка грає
    16. Лідія Михайленко - Запроси мене у сни
    17. Лідія Михайленко - Білі нарциси
    18. Тріо «Либідь» - Світку зелений ти наш
    19. Олександр Пушкаренко, ансамбль «Стожари» - Неопалима купина
    20. Іво Бобул, ВІА «Черемош» - Три трембіти

Тривалість: 01:15:40
Мова: українська
Аудіо-кодек: FLAC
Бітрейт: 804 кб/с
Джерело: власний ріп
Тип ріпу: image + cue + covers
EAC Log

Exact Audio Copy V1.0 beta 2 from 29. April 2011

EAC extraction logfile from 28. February 2013, 9:30

Various / Мелодії України 2

Used drive : Optiarc DVD RW AD-7200A Adapter: 0 ID: 0

Read mode : Secure
Utilize accurate stream : Yes
Defeat audio cache : Yes
Make use of C2 pointers : No

Read offset correction : 48
Overread into Lead-In and Lead-Out : No
Fill up missing offset samples with silence : Yes
Delete leading and trailing silent blocks : No
Null samples used in CRC calculations : Yes
Used interface : Native Win32 interface for Win NT & 2000

Used output format : Internal WAV Routines
Sample format : 44.100 Hz; 16 Bit; Stereo

TOC of the extracted CD

Track | Start | Length | Start sector | End sector
---------------------------------------------------------
1 | 0:00.00 | 2:56.37 | 0 | 13236
2 | 2:56.37 | 4:49.37 | 13237 | 34948
3 | 7:45.74 | 3:08.37 | 34949 | 49085
4 | 10:54.36 | 4:56.37 | 49086 | 71322
5 | 15:50.73 | 3:05.37 | 71323 | 85234
6 | 18:56.35 | 3:48.22 | 85235 | 102356
7 | 22:44.57 | 3:34.37 | 102357 | 118443
8 | 26:19.19 | 3:14.37 | 118444 | 133030
9 | 29:33.56 | 3:51.37 | 133031 | 150392
10 | 33:25.18 | 3:12.37 | 150393 | 164829
11 | 36:37.55 | 5:10.37 | 164830 | 188116
12 | 41:48.17 | 3:07.37 | 188117 | 202178
13 | 44:55.54 | 3:01.37 | 202179 | 215790
14 | 47:57.16 | 4:03.37 | 215791 | 234052
15 | 52:00.53 | 3:55.37 | 234053 | 251714
16 | 55:56.15 | 3:32.37 | 251715 | 267651
17 | 59:28.52 | 4:41.37 | 267652 | 288763
18 | 64:10.14 | 3:59.37 | 288764 | 306725
19 | 68:09.51 | 3:30.37 | 306726 | 322512
20 | 71:40.13 | 3:59.41 | 322513 | 340478

Range status and errors

Selected range

Filename D:\Music\Various - Мелодії України 2 (2004)\Various - Мелодії України 2.wav

Peak level 98.2 %
Extraction speed 4.4 X
Range quality 99.9 %
Copy CRC 2318BB1A
Copy OK

No errors occurred

End of status report
Audiochecker

fooCDtect - foobar2000 + auCDtect, baralgin.

auCDtect: CD records authenticity detector, version 0.8.2
Copyright (c) 2004 Oleg Berngardt. All rights reserved.
Copyright (c) 2004 Alexander Djourik. All rights reserved.

mode: 0

=======================================================
Track: 01 - Квітка папороті
Quality: CDDA, 100%
=======================================================
Track: 02 - Одинокий вожак
Quality: CDDA, 100%
=======================================================
Track: 03 - Повік не одцвіте
Quality: CDDA, 100%
=======================================================
Track: 04 - Берег любові
Quality: CDDA, 99%
=======================================================
Track: 05 - Зачаруй
Quality: CDDA, 100%
=======================================================
Track: 06 - Журавочка
Quality: CDDA, 99%
=======================================================
Track: 07 - Мамина коса
Quality: CDDA, 99%
=======================================================
Track: 08 - Пробач, прощай
Quality: CDDA, 100%
=======================================================
Track: 09 - Тече вода
Quality: CDDA, 100%
=======================================================
Track: 10 - Тиша навкруги
Quality: CDDA, 100%
=======================================================
Track: 11 - В човнику твоїх долонь
Quality: CDDA, 100%
=======================================================
Track: 12 - Запитай у серця
Quality: CDDA, 99%
=======================================================
Track: 13 - Стоїть тополя
Quality: CDDA, 100%
=======================================================
Track: 14 - З тобою поруч
Quality: CDDA, 100%
=======================================================
Track: 15 - Скрипка грає
Quality: CDDA, 100%
=======================================================
Track: 16 - Запроси мене у сни
Quality: CDDA, 100%
=======================================================
Track: 17 - Білі нарциси
Quality: CDDA, 100%
=======================================================
Track: 18 - Світку зелений ти наш
Quality: CDDA, 99%
=======================================================
Track: 19 - Неопалима купина
Quality: CDDA, 100%
=======================================================
Track: 20 - Три трембіти
Quality: CDDA, 100%
=======================================================
Додаткова інформація:
Як і першого разу, це не просто збірка популярних українських мелодій. Хоча це дійсно збірка популярних українських мелодій, тобто пісень. Це – збірка свого роду раритетів, яка виникла тільки завдяки фондам Національної радіокомпанії України. Назарій Яремчук, Лілія Сандулеса, Софія Ротару, "Міраж". Найстарший з представлених тут записів датовано 1981 роком, і це одразу каже, на яку саме хвилю перенесе слухача диск. Мабуть, не помилюся, коли скажу, що на хвилю ностальгії. Приємніше слухати цей диск буде тим, хто пам’ятає, як колись слухав ці пісні по радіо – чи не правда? Навіть, якщо тоді вони Вам не подобались. У дорослих людей спеціально для таких записів виростають з часом інші вуха – ті, якими слухають голос пам’яті. Хоча, гадаю, і більш молодому поколінню це теж може бути цікаво – ну, хоча б просто з цікавості. А якщо вже сподобається – то і не просто.

Умка


Якщо Ви справді бажаєте підтримати українське - після прослуховування, якщо музика вам сподобалась, придбайте ліцензійний диск. Підтримаймо вітчизняних виконавців!


Срібний реліз (на рейтинг впливає 50% завантаженого)
 Трекер:    Зареєстрований   

Завантажити / скачати українську музику



відео для новачків



 Зареєстрований:   2013-02-28 19:30
 Розмір:   454 MB 
 Оцінка музики:   10/10 (Голосів: 10)
   
ssTAss 
Модератор музики


З нами з: 05.07.08
Востаннє: 03.12.16
Повідомлень: 10930

2013-03-17 21:38  
civ написано:
Оксана Хожай

R.I.P.
Цитата:
У неділю у кареті швидкої померла популярна співачка 90-х Оксана Хожай. В неї різко почав падати тиск і чоловік викликав швидку.

Однак її серце зупинилося дорогою до лікарні. Співачці було 48 років, пише ТСН.

Як відомо, Оксана Хожай останнім часо сильно хворіла. В серпні в неї діагностували рідкіснц хворобу - синдром Шегрена. Це аутоімунне системне ураження з'єднувальних тканин. Хвороба прогресує і уражує внутрішні органи - серце, легені та лімфовузли.

Поховають її 20 березня в рідних Борзнах у Чернігівській області.

Ваш часовий пояс: GMT + 2 Години

Нова тема   Відповісти