Завантажити та скачати торренти українською


ВІА «Водограй» - Водограй [Золота колекція] (2005) [FLAC] | Pop / Folk

Нові коментарі

Нова тема   Відповісти
Автор Повідомлення
civ 
VIP


З нами з: 16.02.11
Востаннє: 02.12.16
Повідомлень: 428

2013-02-27 18:29  
ВІА «Водограй» - Водограй [Золота колекція] (2005) [FLAC] | Pop / Folk

ВІА «Водограй» - Водограй [Золота колекція] (2005) [FLAC] | Pop / Folk


Стиль: Pop / Folk
Країна, місто: Україна, Дніпропетровськ
Видавець: Астра Рекордс
Виконавці:
Олександр Шаповал - художній керівник і саксофоніст
Олег Косько - клавішник
Олександр Гуров - барабанщик
Олександр Іщук - басист
Руслан Горобець, Олег Хоменко, Віктор Шпортько - солісти

Пісні:
    01. Зачаруй (сол. Людмила Артеменко)
    02. Несла дівчина воду (сол. Олег Хоменко)
    03. Зачароване коло
    04. Три трембіти (сол. Олег Хоменко, Руслан Горобець)
    05. Стожари (сол. Лілія Сандулеса)
    06. Успіх, успіх, успіх
    07. Ще раз (сол. Людмила Артеменко)
    08. Балада
    09. Моя любов, моя земля (сол. Віктор Шпортько)
    10. Спогад
    11. Купальська ніч (сол. Людмила Артеменко)
    12. Нічні метелики
    13. Диво сторона (сол. Людмила Артеменко)
    14. Дівчина мила (сол. Олег Хоменко)
    15. Танцювальна
    16. Незване моє кохання (сол. Людмила Артеменко)
    17. Подорож

Тривалість: 01:05:33
Мова: українська
Аудіо-кодек: FLAC
Бітрейт: 734 кб/с
Джерело: власний ріп
Тип ріпу: image + cue + covers
EAC Log

Exact Audio Copy V1.0 beta 2 from 29. April 2011

EAC extraction logfile from 27. February 2013, 8:51

ВІА «Водограй» / Вокально-інструментальний ансамбль «Водограй» [Золота колекція]

Used drive : Optiarc DVD RW AD-7200A Adapter: 0 ID: 0

Read mode : Secure
Utilize accurate stream : Yes
Defeat audio cache : Yes
Make use of C2 pointers : No

Read offset correction : 48
Overread into Lead-In and Lead-Out : No
Fill up missing offset samples with silence : Yes
Delete leading and trailing silent blocks : No
Null samples used in CRC calculations : Yes
Used interface : Native Win32 interface for Win NT & 2000

Used output format : Internal WAV Routines
Sample format : 44.100 Hz; 16 Bit; Stereo

TOC of the extracted CD

Track | Start | Length | Start sector | End sector
---------------------------------------------------------
1 | 0:00.00 | 3:05.47 | 0 | 13921
2 | 3:05.47 | 2:44.73 | 13922 | 26294
3 | 5:50.45 | 3:23.05 | 26295 | 41524
4 | 9:13.50 | 2:52.18 | 41525 | 54442
5 | 12:05.68 | 3:19.56 | 54443 | 69423
6 | 15:25.49 | 4:18.67 | 69424 | 88840
7 | 19:44.41 | 4:08.56 | 88841 | 107496
8 | 23:53.22 | 5:35.26 | 107497 | 132647
9 | 29:28.48 | 3:40.59 | 132648 | 149206
10 | 33:09.32 | 3:28.69 | 149207 | 164875
11 | 36:38.26 | 5:19.29 | 164876 | 188829
12 | 41:57.55 | 3:15.63 | 188830 | 203517
13 | 45:13.43 | 5:49.42 | 203518 | 229734
14 | 51:03.10 | 2:55.04 | 229735 | 242863
15 | 53:58.14 | 3:16.20 | 242864 | 257583
16 | 57:14.34 | 4:06.57 | 257584 | 276090
17 | 61:21.16 | 4:11.34 | 276091 | 294949

Range status and errors

Selected range

Filename D:\Music\ВІА «Водограй» - Вокально-інструментальний ансамбль «Водограй» [Золота колекція] (2005)\ВІА «Водограй» - Вокально-інструментальний ансамбль «Водограй» [Золота колекція].wav

Peak level 97.7 %
Extraction speed 4.0 X
Range quality 100.0 %
Copy CRC 31D23B70
Copy OK

No errors occurred

End of status report
Audiochecker

fooCDtect - foobar2000 + auCDtect, baralgin.

auCDtect: CD records authenticity detector, version 0.8.2
Copyright (c) 2004 Oleg Berngardt. All rights reserved.
Copyright (c) 2004 Alexander Djourik. All rights reserved.

mode: 0

=======================================================
Track: 01 - Зачаруй
Quality: MPEG, 95%
=======================================================
Track: 02 - Несла дівчина воду
Quality: CDDA, 100%
=======================================================
Track: 03 - Зачароване коло
Quality: MPEG, 95%
=======================================================
Track: 04 - Три трембіти
Quality: CDDA, 99%
=======================================================
Track: 05 - Стожари
Quality: CDDA, 100%
=======================================================
Track: 06 - Успіх, успіх, успіх
Quality: CDDA, 100%
=======================================================
Track: 07 - Ще раз
Quality: CDDA, 42%
=======================================================
Track: 08 - Балада
Quality: MPEG, 100%
=======================================================
Track: 09 - Моя любов, моя земля
Quality: CDDA, 43%
=======================================================
Track: 10 - Спогад
Quality: CDDA, 94%
=======================================================
Track: 11 - Купальська ніч
Quality: MPEG, 95%
=======================================================
Track: 12 - Нічні метелики
Quality: MPEG, 95%
=======================================================
Track: 13 - Диво сторона
Quality: CDDA, 87%
=======================================================
Track: 14 - Дівчина мила
Quality: CDDA, 100%
=======================================================
Track: 15 - Танцювальна
Quality: CDDA, 87%
=======================================================
Track: 16 - Незване моє кохання
Quality: MPEG, 95%
=======================================================
Track: 17 - Подорож
Quality: MPEG, 95%
=======================================================
Додаткова інформація:
Самі розумієте, що цей диск пропонує ностальгічну подорож у минуле. У всякому разі для тих, чия молодість прийшлася на 70-80-ті роки минулого сторіччя. Пригадуєте? З позиції сьогодення, то була абсолютно інша реальність. І тепер, чим більше часу проходить, тим більше світлих, сонячних рис вона набуває у нашій пам’яті. До того ж, тодішня естрада багато в чому представляється навіть більш цікавою, натхненною, щирою, ніж теперішня. Адже тоді вона, здається мені, мала два основних корені – західну контр-культуру (хоча й у дещо завуальованому вигляді) та наш, себто український, фольклор. Власне кажучи, навіть і тепер кращі зразки естрадних творів народжуються, як правило, саме завдяки синтезу цих двох основ. І тому цей диск може зацікавити й нинішню молодіж – бо з таких гуртів, як цей, багато чого починалося. І, між іншим, деякі з їхніх музичних знахідок можуть бути актуальними і сьогодні.

Умка




Якщо Ви справді бажаєте підтримати українське - після прослуховування, якщо музика вам сподобалась, придбайте ліцензійний диск. Підтримаймо вітчизняних виконавців!


Срібний реліз (на рейтинг впливає 50% завантаженого)
 Трекер:    Зареєстрований   

Завантажити / скачати українську музику



відео для новачків



 Зареєстрований:   2013-02-27 18:29
 Розмір:   371 MB 
 Оцінка музики:   10/10 (Голосів: 6)
   
musicfan 
Модератор музики


З нами з: 27.01.09
Востаннє: 02.12.16
Повідомлень: 893

2013-02-28 11:47  
Пропущено стрічку Виконавці: Rolleyes (1)
civ 
VIP


З нами з: 16.02.11
Востаннє: 02.12.16
Повідомлень: 428

2013-02-28 18:06  
Я їх всіх не знаю... Оно на обкладинці 9 мужиків і жодної жінки. Хто вони всі?
gorislavets 
VIP


З нами з: 29.03.11
Востаннє: 28.11.16
Повідомлень: 372

2014-02-22 19:33  
civ написано:
Я їх всіх не знаю... Оно на обкладинці 9 мужиків і жодної жінки. Хто вони всі?


Худ. керівник і саксофоніст Олександр Шаповал, клавішник Олег Косько, барабанщик Олександр Гуров, басист Олександр Іщук, солісти Руслан Горобець, Олег Хоменко та Віктор Шпортько.

02. Несла дівчина воду - соліст Олег Хоменко
04. Три трембіти - солісти О. Хоменко та Руслан Горобець.
14. Дівчина мила - сол. О. Хоменко

civ 
VIP


З нами з: 16.02.11
Востаннє: 02.12.16
Повідомлень: 428

2014-02-22 19:36  
О, дякую за інфу. :-)
Скани є роздачі. Але вони малоінформативні.

Ваш часовий пояс: GMT + 2 Години

Нова тема   Відповісти