Завантажити та скачати торренти українською


Ґеймер / Гравець / Gamer (2009) 720p Ukr/Eng | Sub Ukr/Eng

Нові коментарі

Нова тема   Відповісти
Автор Повідомлення
Віктор 
Відео Гуртом - субтитрування
Відео Гуртом - субтитрування


З нами з: 09.01.10
Востаннє: 05.12.16
Повідомлень: 8663

2013-02-27 00:37  
Ґеймер / Гравець / Gamer (2009) 720p Ukr/Eng | Sub Ukr/Eng




«Who's playing you?»


Жанр: бойовик, фантастика, трилер
Країна: США



Кіностудія / кінокомпанія: Lionsgate, Lakeshore Entertainment
Режисер: Марк Невелдін (Mark Neveldine) і Браян Тейлор (Brian Taylor)
Актори: Джерард Батлер (Gerard Butler), Eмбер Валета (Amber Valletta), Майкл Сі. Гол (Michael C. Hall), Кіра Седжвік (Kyra Sedgwick), Лоґан Лермен (Logan Lerman), Елісон Ломен (Alison Lohman), Тері Кревс (Terry Crews), Рамсі Мур (Ramsey Moore), Лудакріс (Ludacris), Аарон Йо (Aaron Yoo), Джонатан Чейз (Jonathan Chase), Ден Каллаган (Dan Callahan), Бріґіт Флемінґ (Brighid Fleming), Джоні Вайтворт (Johnny Whitworth), Кіт Джардін (Keith Jardine) та інші.

Сюжет:
Фільм про недалеке майбутнє, в якому розвиток передових технологій дозволив ґеніяльному вченому поєднати відеогру і реаліті-шоу. У результаті з’явилася багатокористувацька гра «Убивці», в яку потрапляють ув’язнені. З одного боку, це було для них покаранням, з іншого – шансом на свободу, адже головним призом стала саме свобода.
Джон Тілмен потрапляє в гру як засуджений на довічне ув’язнення за злочин, якого не здійснював. Єдиний шанс отримати свободу – це перемогти. Але проблема в тому, що це гра, а Джон тільки керований учасник гри.



У кіно-прокаті цей фільм демонструвався з українським дубляжем ( http://kino-pereklad.org.ua/2009/11/gejmer-gamer/ ), який не додали до жодного ліцензійного диску. Тому дубляж вважається втраченим ( https://toloka.to/t16117 )

Цікаві факти про фільм

* Одну з ролей міг виконати Джеймі Фокс.
* Спочатку проект мав назву «Гра».
* Зйомки «Ґеймера» почалися ще в листопаді 2007 року і завершилися до того, як на екрани вийшла друга частина «Адреналіну», авторами якої також виступив тандем Невелдайн / Тейлор.
* Також фільм міг називатися - «Game Kable». У перекладі - «Гра Кейбла»
* У героя Лоґана Лермена є футболка з лоґотипом «Адреналін». Це відсилання до х/ф «Адреналін», попередньої роботи Невелдайн / Тейлора.
* Під час зйомок використовували цифрову камеру «Red One», це другий фільм знятий за допомогою цієї камери. Першим був "Че" Стівена Содерберґа.
* Кошторис: $50 000 000
MediaInfo

Код:
General
Unique ID                        : 230964973824299518135179843998917954454 (0xADC23C6534C6140DA433013ACEF98B96)
Complete name                    : D:\HURTOM\Gamer (2009) [Ukr, Eng] 720p [Hurtom].mkv
Format                           : Matroska
Format version                   : Version 2
File size                        : 5.37 GiB
Duration                         : 1h 34mn
Overall bit rate                 : 8 113 Kbps
Movie name                       : Gamer (2009)
Encoded date                     : UTC 2013-03-07 13:48:52
Writing application              : mkvmerge v5.0.1 ('Es ist Sommer') built on Oct  9 2011 11:55:43
Writing library                  : libebml v1.2.2 + libmatroska v1.3.0

Video
ID                               : 1
Format                           : AVC
Format/Info                      : Advanced Video Codec
Format profile                   : [email protected]
Format settings, CABAC           : Yes
Format settings, ReFrames        : 9 frames
Codec ID                         : V_MPEG4/ISO/AVC
Duration                         : 1h 34mn
Bit rate                         : 5 971 Kbps
Width                            : 1 280 pixels
Height                           : 694 pixels
Display aspect ratio             : 16:9
Frame rate                       : 23.976 fps
Original frame rate              : 24.000 fps
Color space                      : YUV
Chroma subsampling               : 4:2:0
Bit depth                        : 8 bits
Scan type                        : Progressive
Bits/(Pixel*Frame)               : 0.280
Stream size                      : 3.84 GiB (72%)
Title                            : Release for HDCLUB
Writing library                  : core 80 r1376M 3feaec2
Encoding settings                : cabac=1 / ref=9 / deblock=1:-3:-3 / analyse=0x3:0x113 / me=umh / subme=9 / psy=1 / psy_rd=0.9:0.1 / mixed_ref=1 / me_range=48 / chroma_me=1 / trellis=2 / 8x8dct=1 / cqm=0 / deadzone=21,11 / fast_pskip=0 / chroma_qp_offset=-3 / threads=6 / sliced_threads=0 / nr=0 / decimate=1 / mbaff=0 / constrained_intra=0 / bframes=6 / b_pyramid=2 / b_adapt=2 / b_bias=0 / direct=3 / wpredb=1 / wpredp=2 / keyint=250 / keyint_min=25 / scenecut=40 / rc=2pass / mbtree=0 / bitrate=5971 / ratetol=1.0 / qcomp=0.60 / qpmin=10 / qpmax=51 / qpstep=4 / cplxblur=20.0 / qblur=0.5 / ip_ratio=1.40 / pb_ratio=1.30 / aq=1:0.60
Language                         : English
Default                          : No
Forced                           : No

Audio #1
ID                               : 2
Format                           : AC-3
Format/Info                      : Audio Coding 3
Mode extension                   : CM (complete main)
Codec ID                         : A_AC3
Duration                         : 1h 34mn
Bit rate mode                    : Constant
Bit rate                         : 640 Kbps
Channel(s)                       : 6 channels
Channel positions                : Front: L C R, Side: L R, LFE
Sampling rate                    : 48.0 KHz
Bit depth                        : 16 bits
Compression mode                 : Lossy
Stream size                      : 434 MiB (8%)
Title                            : 5.1 @ 640 kbps - Двоголосий закадровий, запис з 2+2
Language                         : Ukrainian
Default                          : Yes
Forced                           : No

Audio #2
ID                               : 3
Format                           :
Format/Info                      : Digital Theater Systems
Codec ID                         : A_DTS
Duration                         : 1h 34mn
Bit rate mode                    : Constant
Bit rate                         : 1 510 Kbps
Channel(s)                       : 6 channels
Channel positions                : Front: L C R, Side: L R, LFE
Sampling rate                    : 48.0 KHz
Bit depth                        : 16 bits
Compression mode                 : Lossy
Stream size                      : 1 023 MiB (19%)
Title                            : 5.1 @ 1536 kbps
Language                         : English
Default                          : No
Forced                           : No

Text #1
ID                               : 4
Format                           : UTF-8
Codec ID                         : S_TEXT/UTF8
Codec ID/Info                    : UTF-8 Plain Text
Language                         : Ukrainian
Default                          : No
Forced                           : No

Text #2
ID                               : 5
Format                           : UTF-8
Codec ID                         : S_TEXT/UTF8
Codec ID/Info                    : UTF-8 Plain Text
Language                         : English
Default                          : No
Forced                           : No

Menu
00:00:00.000                     : en:00:00:00.000
00:05:13.333                     : en:00:05:13.333
00:12:16.292                     : en:00:12:16.292
00:16:52.542                     : en:00:16:52.542
00:21:01.542                     : en:00:21:01.542
00:27:55.583                     : en:00:27:55.583
00:32:00.042                     : en:00:32:00.042
00:38:39.333                     : en:00:38:39.333
00:43:40.000                     : en:00:43:40.000
00:48:30.708                     : en:00:48:30.708
00:55:01.167                     : en:00:55:01.167
00:59:51.708                     : en:00:59:51.708
01:07:32.417                     : en:01:07:32.417
01:11:47.083                     : en:01:11:47.083
01:17:14.208                     : en:01:17:14.208
Тривалість: 01:34:46
Якість: 720p (EbP)
Відео:
кодек:
розмір кадру: 1280x694
бітрейт: 5971 кб/с

Аудіо # 1:
мова: українська
переклад: двоголосий закадровий запис з 2+2 | Ролі озвучили: Євген Пашин і Олена Яблучна
кодек: 5.1
бітрейт: 640 кб/с

Аудіо # 2:
мова: анґлійська
переклад: ориґінал
кодек: 5.1
бітрейт: 1536 кб/с

Субтитри # 1:
мова: українська
тип: програмні (м’які)
формат: *.srt
джерело субтитрів: DVD або Blu-Ray від West Video, можна завантажити також окремо

Субтитри # 2:
мова: анґлійська
тип: програмні (м’які)
формат: *.srt

Скріншоти:





За синхронізацію укр. доріжки подяка JACKUS,
за наданий код оформлення подяка karvai,
за запис звуку SAT подяка sando7


Джерело:
Особиста оцінка: 7


 Трекер:    Зареєстрований   

Завантажити / скачати фільм українською



відео для новачків



 Зареєстрований:   2013-03-07 16:21
 Розмір:   5.37 GB 
 Оцінка фільму:   7.8/10 (Голосів: 12)
   
Інші релізи
   Ґеймер / Гравець / Gamer (2009) Ukr/Eng | Sub Ukr/Eng JACKUS  0 / 0   2.19 GB   2014-02-17 23:07 
   Ґеймер / Гравець / Gamer (2009) Ukr/Eng | Sub Ukr/Eng karvai0  2 / 2   1.7 GB   2013-02-27 21:33 
bot 
робот


З нами з: 30.09.07
Востаннє: 26.05.05
Повідомлень: 16001

2013-03-07 16:20  
Тему перенесено з Анонси релізів від Відео Гуртом до форуму Фільми в HD


Віктор

leroykendall 
Модератор HD


З нами з: 03.01.11
Востаннє: 20.11.16
Повідомлень: 749

2013-03-08 22:58  
Віктор
Ого які люди на HD арені Happy Приємна несподіванка.

TurbolenT 
Новенький


З нами з: 13.12.11
Востаннє: 05.12.16
Повідомлень: 24

2013-03-29 22:48  
Як фільм? Варто вбивати час?
hellforces 
VIP


З нами з: 25.06.08
Востаннє: 11.11.16
Повідомлень: 1556

2013-03-29 22:54  
TurbolenT
я люблю такі фільми тому мені кіно дуже сподобалося

Косячок справжній 
VIP


З нами з: 29.02.12
Востаннє: 05.12.16
Повідомлень: 656

2016-01-05 21:26  
Ну так собі кіно.
Ваш часовий пояс: GMT + 2 Години

Нова тема   Відповісти