Завантажити та скачати торренти українською


VA - Хіти української естради (5 CD) [Золота колекція] (2004-2005) [APE] | Folk / Pop

Нові коментарі

Нова тема   Відповісти
Автор Повідомлення
civ 
VIP


З нами з: 16.02.11
Востаннє: 04.12.16
Повідомлень: 429

2013-02-26 22:25  
VA - Хіти української естради (5 CD) [Золота колекція] (2004-2005) [APE] | Folk

Стиль: Folk / Pop
Країна, місто: Україна
Видавець: Астра Рекордс
Хіти української естради 50-х років (2005)


Пісні:
    01. Концертний ансамбль Українського радіо - Київський вальс
    02. Юлія Пєшковська - Троянди на пероні
    03. Микола Кондратюк - Пісня про вчительку
    04. Елеонора Яроцька - Білі ночі (з к/ф «Командир корабля»)
    05. Олександр Таранець - Пісня про щастя
    06. Юлія Аполькова - Ми підем, де трави похилі
    07. Костянтин Силантьєв, Державна заслужена капела бандуристів України - Верховино, мати моя
    08. Тріо бандуристок: Н.Павленко, В.Третьякова, Т.Поліщук - Гуцулка Ксеня
    09. Сергій Козак - Прощальна
    10. Галина Прокопенко - Не скажу вам хто такий
    11. Буковинський ансамбль пісні й танцю - Іде весна над нивами
    12. Тамара Залевська, Державний український народний хор - Шахтарочка
    13. Хорова капела Українського радіо - Любов моя
    14. О.Фоменко, О.Кірова - Вальс кохання
    15. Дмитро Гнатюк - Пісня з полонини
    16. Вокальний квартет: М.Байко, Р.Коробкіна, Н.Фоменко, О.Ніколишина - Коли заснули сині гори
    17. О.Скачко - Може, я тебе вигадав
    18. Оркестр Укрцирку - Білі троянди
    19. Сергій Козак, Микола Фокін - Ти — любов моя (з к/ф «Доля Марини»)
    20. Петро Кучмій, Анатолій Бойко, капела «Думка» - Колгоспний вальс
    21. Державний український народний хор - І в Вас, і в Нас

Тривалість: 01:11:03
Мова: українська
Аудіо-кодек: 505
Бітрейт: 505 кб/с
Джерело: власний ріп
Тип ріпу: image + cue + covers
EAC Log

Exact Audio Copy V1.0 beta 2 from 29. April 2011

EAC extraction logfile from 27. February 2013, 9:24

Various / Хіти української естради 50-х років [Золота колекція]

Used drive : Optiarc DVD RW AD-7200A Adapter: 0 ID: 0

Read mode : Secure
Utilize accurate stream : Yes
Defeat audio cache : Yes
Make use of C2 pointers : No

Read offset correction : 48
Overread into Lead-In and Lead-Out : No
Fill up missing offset samples with silence : Yes
Delete leading and trailing silent blocks : No
Null samples used in CRC calculations : Yes
Used interface : Native Win32 interface for Win NT & 2000

Used output format : Internal WAV Routines
Sample format : 44.100 Hz; 16 Bit; Stereo

TOC of the extracted CD

Track | Start | Length | Start sector | End sector
---------------------------------------------------------
1 | 0:00.00 | 4:09.21 | 0 | 18695
2 | 4:09.21 | 2:30.38 | 18696 | 29983
3 | 6:39.59 | 4:44.27 | 29984 | 51310
4 | 11:24.11 | 3:23.23 | 51311 | 66558
5 | 14:47.34 | 4:46.45 | 66559 | 88053
6 | 19:34.04 | 4:30.68 | 88054 | 108371
7 | 24:04.72 | 3:49.68 | 108372 | 125614
8 | 27:54.65 | 3:13.21 | 125615 | 140110
9 | 31:08.11 | 2:44.02 | 140111 | 152412
10 | 33:52.13 | 3:31.39 | 152413 | 168276
11 | 37:23.52 | 1:42.47 | 168277 | 175973
12 | 39:06.24 | 2:04.61 | 175974 | 185334
13 | 41:11.10 | 4:39.09 | 185335 | 206268
14 | 45:50.19 | 3:37.38 | 206269 | 222581
15 | 49:27.57 | 3:42.50 | 222582 | 239281
16 | 53:10.32 | 3:20.70 | 239282 | 254351
17 | 56:31.27 | 2:40.26 | 254352 | 266377
18 | 59:11.53 | 2:40.29 | 266378 | 278406
19 | 61:52.07 | 3:11.24 | 278407 | 292755
20 | 65:03.31 | 3:36.64 | 292756 | 309019
21 | 68:40.20 | 2:23.07 | 309020 | 319751

Range status and errors

Selected range

Filename D:\Music\Various - Хіти української естради 50-х років [Золота колекція] (2005)\Various - Хіти української естради 50-х років [Золота колекція].wav

Peak level 98.0 %
Extraction speed 4.2 X
Range quality 100.0 %
Copy CRC D4C755F3
Copy OK

No errors occurred

End of status report
Audiochecker

fooCDtect - foobar2000 + auCDtect, baralgin.

auCDtect: CD records authenticity detector, version 0.8.2
Copyright (c) 2004 Oleg Berngardt. All rights reserved.
Copyright (c) 2004 Alexander Djourik. All rights reserved.

mode: 0

=======================================================
Track: 01 - Київський вальс
Quality: CDDA, 99%
=======================================================
Track: 02 - Троянди на пероні
Quality: CDDA, 100%
=======================================================
Track: 03 - Пісня про вчительку
Quality: CDDA, 43%
=======================================================
Track: 04 - Білі ночі (з к-ф «Командир корабля»)
Quality: MPEG, 93%
=======================================================
Track: 05 - Пісня про щастя
Quality: CDDA, 100%
=======================================================
Track: 06 - Ми підем, де трави похилі
Quality: CDDA, 54%
=======================================================
Track: 07 - Верховино, мати моя
Quality: CDDA, 100%
=======================================================
Track: 08 - Гуцулка Ксеня
Quality: CDDA, 100%
=======================================================
Track: 09 - Прощальна
Quality: CDDA, 100%
=======================================================
Track: 10 - Не скажу вам хто такий
Quality: CDDA, 100%
=======================================================
Track: 11 - Іде весна над нивами
Quality: CDDA, 43%
=======================================================
Track: 12 - Шахтарочка
Quality: CDDA, 100%
=======================================================
Track: 13 - Любов моя
Quality: CDDA, 62%
=======================================================
Track: 14 - Вальс кохання
Quality: CDDA, 62%
=======================================================
Track: 15 - Пісня з полонини
Quality: CDDA, 100%
=======================================================
Track: 16 - Коли заснули сині гори
Quality: CDDA, 100%
=======================================================
Track: 17 - Може, я тебе вигадав
Quality: CDDA, 100%
=======================================================
Track: 18 - Білі троянди
Quality: CDDA, 99%
=======================================================
Track: 19 - Ти — любов моя (з к-ф «Доля Марини»)
Quality: CDDA, 100%
=======================================================
Track: 20 - Колгоспний вальс
Quality: CDDA, 100%
=======================================================
Track: 21 - І в Вас, і в Нас
Quality: CDDA, 100%
=======================================================
Хіти української естради 60-х років (2004)


Пісні:
    01. Дмитро Гнатюк - Черемшина
    02. Анатолій Мокренко - Два кольори
    03. Дмитро Гнатюк - Києве мій
    04. Костянтин Огневий - Чорнобривці
    05. Дмитро Гнатюк - Пісня про рушник
    06. Жіночий вокальний ансамбль хору Українського радіо - Дівоча лірична
    07. Микола Кондратюк - Ясени
    08. Олександр Таранець - Моя стежина
    09. Людмила Маковецька, Олександр Трофимчук - Київський вальс
    10. Дмитро Гнатюк - Осінь
    11. Діана Петриненко - Кохання моє
    12. Олександр Таранець - Тільки в Києві
    13. Тетяна Русова - Червона троянда
    14. Микола Кондратюк - На долині туман
    15. ВІА «Мрія» - Зоряна ніч
    16. Віктор Тіткін - Пісня Романа з к/ф «Роман і Франческа»
    17. Ансамбль «Марічка» - Марічка
    18. Олександр Скачко - Очі волошкові
    19. Петро Ретвицький, Олександр Таранець - Білий сніг
    20. Анатолій Мокренко - Соняшник
    21. Костянтин Огневий - Кохана

Тривалість: 01:14:31
Мова: українська
Аудіо-кодек: APE
Бітрейт: 632 кб/с
Джерело: власний ріп
Тип ріпу: image + cue + covers
EAC Log

Exact Audio Copy V1.0 beta 2 from 29. April 2011

EAC extraction logfile from 26. February 2013, 9:14

Various / Хіти української естради 60-х років [Золота колекція]

Used drive : Optiarc DVD RW AD-7200A Adapter: 0 ID: 0

Read mode : Secure
Utilize accurate stream : Yes
Defeat audio cache : Yes
Make use of C2 pointers : No

Read offset correction : 48
Overread into Lead-In and Lead-Out : No
Fill up missing offset samples with silence : Yes
Delete leading and trailing silent blocks : No
Null samples used in CRC calculations : Yes
Used interface : Native Win32 interface for Win NT & 2000

Used output format : Internal WAV Routines
Sample format : 44.100 Hz; 16 Bit; Stereo

TOC of the extracted CD

Track | Start | Length | Start sector | End sector
---------------------------------------------------------
1 | 0:00.00 | 4:14.42 | 0 | 19091
2 | 4:14.42 | 6:08.41 | 19092 | 46732
3 | 10:23.08 | 3:33.48 | 46733 | 62755
4 | 13:56.56 | 3:42.50 | 62756 | 79455
5 | 17:39.31 | 4:49.68 | 79456 | 101198
6 | 22:29.24 | 3:23.54 | 101199 | 116477
7 | 25:53.03 | 3:24.47 | 116478 | 131824
8 | 29:17.50 | 4:15.46 | 131825 | 150995
9 | 33:33.21 | 4:46.00 | 150996 | 172445
10 | 38:19.21 | 4:12.12 | 172446 | 191357
11 | 42:31.33 | 3:19.46 | 191358 | 206328
12 | 45:51.04 | 3:00.14 | 206329 | 219842
13 | 48:51.18 | 3:34.27 | 219843 | 235919
14 | 52:25.45 | 2:00.58 | 235920 | 244977
15 | 54:26.28 | 2:27.12 | 244978 | 256014
16 | 56:53.40 | 2:49.31 | 256015 | 268720
17 | 59:42.71 | 3:08.55 | 268721 | 282875
18 | 62:51.51 | 3:02.52 | 282876 | 296577
19 | 65:54.28 | 2:55.05 | 296578 | 309707
20 | 68:49.33 | 3:11.13 | 309708 | 324045
21 | 72:00.46 | 2:30.52 | 324046 | 335347

Range status and errors

Selected range

Filename D:\Music\Various - Хіти української естради 60-х років [Золота колекція] (2004)\Various - Хіти української естради 60-х років [Золота колекція].wav

Peak level 100.0 %
Extraction speed 4.4 X
Range quality 100.0 %
Copy CRC FC957172
Copy OK

No errors occurred

End of status report
Audiochecker

fooCDtect - foobar2000 + auCDtect, baralgin.

auCDtect: CD records authenticity detector, version 0.8.2
Copyright (c) 2004 Oleg Berngardt. All rights reserved.
Copyright (c) 2004 Alexander Djourik. All rights reserved.

mode: 0

=======================================================
Track: 01 - Черемшина
Quality: CDDA, 94%
=======================================================
Track: 02 - Два кольори
Quality: CDDA, 100%
=======================================================
Track: 03 - Києве мій
Quality: MPEG, 80%
=======================================================
Track: 04 - Чорнобривці
Quality: CDDA, 99%
=======================================================
Track: 05 - Пісня про рушник
Quality: MPEG, 90%
=======================================================
Track: 06 - Дівоча лірична
Quality: CDDA, 42%
=======================================================
Track: 07 - Ясени
Quality: CDDA, 62%
=======================================================
Track: 08 - Моя стежина
Quality: CDDA, 100%
=======================================================
Track: 09 - Київський вальс
Quality: CDDA, 54%
=======================================================
Track: 10 - Осінь
Quality: CDDA, 76%
=======================================================
Track: 11 - Кохання моє
Quality: CDDA, 92%
=======================================================
Track: 12 - Тільки в Києві
Quality: CDDA, 100%
=======================================================
Track: 13 - Червона троянда
Quality: CDDA, 100%
=======================================================
Track: 14 - На долині туман
Quality: CDDA, 94%
=======================================================
Track: 15 - Зоряна ніч
Quality: CDDA, 100%
=======================================================
Track: 16 - Пісня Романа з к-ф «Роман і Франческа»
Quality: CDDA, 100%
=======================================================
Track: 17 - Марічка
Quality: MPEG, 100%
=======================================================
Track: 18 - Очі волошкові
Quality: CDDA, 100%
=======================================================
Track: 19 - Білий сніг
Quality: CDDA, 58%
=======================================================
Track: 20 - Соняшник
Quality: CDDA, 100%
=======================================================
Track: 21 - Кохана
Quality: CDDA, 86%
=======================================================
Хіти української естради 70-х років (2004)


Пісні:
    01. Василь Зінкевич, Назарій Яремчук, ВІА «Смерічка» - Червона рута
    02. Софія Ротару - День з тобою
    03. Василь Зінкевич, Назарій Яремчук, ВІА «Смерічка» - Пісня буде поміж нас
    04. Лідія Відаш - Я піду в далекі гори
    05. ВІА «Водограй» - Три трембіти
    06. Софія Ротару - Два перстені
    07. Надія Пащенко, Назарій Яремчук, ВІА «Смерічка» - Я — твоє крило
    08. Софія Ротару - Кленовий вогонь
    09. Надія Пащенко, Ніна Злобіна - Зелений клен
    10. Юрій Рожков - Кольори кохання
    11. Ліна Прохорова - Три поради
    12. ВІА «Калина» - А ми удвох
    13. Ніна Матвієнко - Дикі гуси
    14. ВІА «Кобза» - Люби мене
    15. Тріо «Либідь» - Чарівна скрипка
    16. ВІА «Кобза» - Ніч яка місячна
    17. Тріо Маренич - Несе Галя воду
    18. Тріо Маренич - Посилала мене мати
    19. ВІА «Кобза» - Ой, у полі рута, рута
    20. ВІА «Червона рута» - Чічері
    21. Надія Пащенко, Назарій Яремчук, ВІА «Смерічка» - Водограй


Тривалість: 01:12:08
Мова: українська
Аудіо-кодек: APE
Бітрейт: 695 кб/с
Джерело: власний ріп
Тип ріпу: image + cue + covers
EAC Log

Exact Audio Copy V1.0 beta 2 from 29. April 2011

EAC extraction logfile from 26. February 2013, 8:50

Various / Хіти української естради 70-х років [Золота колекція]

Used drive : Optiarc DVD RW AD-7200A Adapter: 0 ID: 0

Read mode : Secure
Utilize accurate stream : Yes
Defeat audio cache : Yes
Make use of C2 pointers : No

Read offset correction : 48
Overread into Lead-In and Lead-Out : No
Fill up missing offset samples with silence : Yes
Delete leading and trailing silent blocks : No
Null samples used in CRC calculations : Yes
Used interface : Native Win32 interface for Win NT & 2000

Used output format : Internal WAV Routines
Sample format : 44.100 Hz; 16 Bit; Stereo

TOC of the extracted CD

Track | Start | Length | Start sector | End sector
---------------------------------------------------------
1 | 0:00.00 | 3:10.16 | 0 | 14265
2 | 3:10.16 | 3:34.37 | 14266 | 30352
3 | 6:44.53 | 3:41.04 | 30353 | 46931
4 | 10:25.57 | 3:12.59 | 46932 | 61390
5 | 13:38.41 | 2:53.48 | 61391 | 74413
6 | 16:32.14 | 3:36.63 | 74414 | 90676
7 | 20:09.02 | 3:29.05 | 90677 | 106356
8 | 23:38.07 | 3:02.24 | 106357 | 120030
9 | 26:40.31 | 4:10.18 | 120031 | 138798
10 | 30:50.49 | 2:25.04 | 138799 | 149677
11 | 33:15.53 | 4:24.40 | 149678 | 169517
12 | 37:40.18 | 2:47.69 | 169518 | 182111
13 | 40:28.12 | 3:55.06 | 182112 | 199742
14 | 44:23.18 | 3:22.13 | 199743 | 214905
15 | 47:45.31 | 4:42.57 | 214906 | 236112
16 | 52:28.13 | 2:28.73 | 236113 | 247285
17 | 54:57.11 | 3:46.26 | 247286 | 264261
18 | 58:43.37 | 2:49.44 | 264262 | 276980
19 | 61:33.06 | 3:28.12 | 276981 | 292592
20 | 65:01.18 | 3:38.66 | 292593 | 309008
21 | 68:40.09 | 3:28.22 | 309009 | 324630

Range status and errors

Selected range

Filename D:\Music\Various - Хіти української естради 70-х років [Золота колекція] (2004)\Various - Хіти української естради 70-х років [Золота колекція].wav

Peak level 80.1 %
Extraction speed 4.3 X
Range quality 100.0 %
Copy CRC A3988252
Copy OK

No errors occurred

End of status report
Audiochecker

fooCDtect - foobar2000 + auCDtect, baralgin.

auCDtect: CD records authenticity detector, version 0.8.2
Copyright (c) 2004 Oleg Berngardt. All rights reserved.
Copyright (c) 2004 Alexander Djourik. All rights reserved.

mode: 0

=======================================================
Track: 01 - Червона рута
Quality: MPEG, 95%
=======================================================
Track: 02 - День з тобою
Quality: CDDA, 99%
=======================================================
Track: 03 - Пісня буде поміж нас
Quality: CDDA, 100%
=======================================================
Track: 04 - Я піду в далекі гори
Quality: CDDA, 99%
=======================================================
Track: 05 - Три трембіти
Quality: CDDA, 100%
=======================================================
Track: 06 - Два перстені
Quality: CDDA, 100%
=======================================================
Track: 07 - Я — твоє крило
Quality: CDDA, 76%
=======================================================
Track: 08 - Кленовий вогонь
Quality: CDDA, 43%
=======================================================
Track: 09 - Зелений клен
Quality: CDDA, 100%
=======================================================
Track: 10 - Кольори кохання
Quality: CDDA, 86%
=======================================================
Track: 11 - Три поради
Quality: CDDA, 87%
=======================================================
Track: 12 - А ми удвох
Quality: CDDA, 100%
=======================================================
Track: 13 - Дикі гуси
Quality: MPEG, 93%
=======================================================
Track: 14 - Люби мене
Quality: CDDA, 100%
=======================================================
Track: 15 - Чарівна скрипка
Quality: CDDA, 100%
=======================================================
Track: 16 - Ніч яка місячна
Quality: CDDA, 87%
=======================================================
Track: 17 - Несе Галя воду
Quality: MPEG, 95%
=======================================================
Track: 18 - Посилала мене мати
Quality: CDDA, 87%
=======================================================
Track: 19 - Ой, у полі рута, рута
Quality: CDDA, 100%
=======================================================
Track: 20 - Чічері
Quality: CDDA, 100%
=======================================================
Track: 21 - Водограй
Quality: CDDA, 100%
=======================================================
Хіти української естради 80-х років (2005)


Пісні:
    01. Софія Ротару - Тече вода
    02. ВІА «Смерічка» - Гай, зелений гай
    03. ВІА «Водограй», Людмила Артеменко - Зачаруй
    04. ВІА «Світязь», Василь Зінкевич - Горянка
    05. Дует «Писанка» - Балада про дві скрипки
    06. ВІА «Медобори», Олег Марцинківський - Як тебе знайти
    07. ВІА «Кобза» - Запитай у серця
    08. ВІА «Смерічка», Назарій Яремчук - Білі лілеї
    09. ВІА «Водограй», Лілія Сандулеса - Стожари
    10. Любов Анісімова, Віктор Анісімов - Папороть цвіте
    11. ВІА «Кобза» - Ой, у полі рута, рута
    12. Тріо Маренич - Ти скажи, промов (Котики вербові)
    13. ВІА «Світязь», Василь Зінкевич - Скрипка грає
    14. Софія Ротару, ВІА «Червона рута» - Минає день
    15. ВІА «Смерічка», Назарій Яремчук - Квітка розмарія
    16. Алла Кудлай - Половина саду квітне
    17. ВІА «Медобори», Людмила Тимощук, Олег Марцинківський - Три дороги
    18. Тріо Маренич - Ой, там, на горі
    19. ВІА «Світязь», Василь Зінкевич - Там, де ясні зорі
    20. Софія Ротару, ВІА «Червона рута» - Ти — земле моя
    21. Тарас Петриненко, Тетяна Горобець, ВІА «Гроно» - Пісня про пісню

Тривалість: 01:19:40
Мова: українська
Аудіо-кодек: APE
Бітрейт: 680 кб/с
Джерело: власний ріп
Тип ріпу: image + cue + covers
EAC Log

Exact Audio Copy V1.0 beta 3 from 29. August 2011

EAC extraction logfile from 16. November 2013, 11:50

Various / Хіти української естради 80-х років [Золота колекція]

Used drive : MATSHITADVD-RAM UJ8C1 Adapter: 1 ID: 0

Read mode : Secure
Utilize accurate stream : Yes
Defeat audio cache : Yes
Make use of C2 pointers : No

Read offset correction : 6
Overread into Lead-In and Lead-Out : No
Fill up missing offset samples with silence : Yes
Delete leading and trailing silent blocks : No
Null samples used in CRC calculations : Yes
Used interface : Native Win32 interface for Win NT & 2000

Used output format : Internal WAV Routines
Sample format : 44.100 Hz; 16 Bit; Stereo

TOC of the extracted CD

Track | Start | Length | Start sector | End sector
---------------------------------------------------------
1 | 0:00.00 | 3:51.00 | 0 | 17324
2 | 3:51.00 | 3:05.35 | 17325 | 31234
3 | 6:56.35 | 3:04.64 | 31235 | 45098
4 | 10:01.24 | 3:57.52 | 45099 | 62925
5 | 13:59.01 | 4:00.51 | 62926 | 80976
6 | 17:59.52 | 3:28.13 | 80977 | 96589
7 | 21:27.65 | 3:07.34 | 96590 | 110648
8 | 24:35.24 | 4:03.05 | 110649 | 128878
9 | 28:38.29 | 3:19.31 | 128879 | 143834
10 | 31:57.60 | 2:25.02 | 143835 | 154711
11 | 34:22.62 | 3:28.19 | 154712 | 170330
12 | 37:51.06 | 4:22.09 | 170331 | 189989
13 | 42:13.15 | 3:54.55 | 189990 | 207594
14 | 46:07.70 | 4:15.10 | 207595 | 226729
15 | 50:23.05 | 5:20.24 | 226730 | 250753
16 | 55:43.29 | 4:16.69 | 250754 | 270022
17 | 60:00.23 | 5:00.72 | 270023 | 292594
18 | 65:01.20 | 3:05.22 | 292595 | 306491
19 | 68:06.42 | 3:48.21 | 306492 | 323612
20 | 71:54.63 | 4:18.53 | 323613 | 343015
21 | 76:13.41 | 3:26.66 | 343016 | 358531

Range status and errors

Selected range

Filename C:\Music\Обідране\Various - Хіти української естради 80-х років [Золота колекція] (2005)\Various - Хіти української естради 80-х років [Золота колекція].wav

Peak level 100.0 %
Extraction speed 5.4 X
Range quality 100.0 %
Copy CRC 1AF5FBD0
Copy OK

No errors occurred

AccurateRip summary

Track 1 not present in database
Track 2 not present in database
Track 3 not present in database
Track 4 not present in database
Track 5 not present in database
Track 6 not present in database
Track 7 not present in database
Track 8 not present in database
Track 9 not present in database
Track 10 not present in database
Track 11 not present in database
Track 12 not present in database
Track 13 not present in database
Track 14 not present in database
Track 15 not present in database
Track 16 not present in database
Track 17 not present in database
Track 18 not present in database
Track 19 not present in database
Track 20 not present in database
Track 21 not present in database

None of the tracks are present in the AccurateRip database

End of status report
Audiochecker

fooCDtect - foobar2000 + auCDtect, baralgin.

auCDtect: CD records authenticity detector, version 0.8.2
Copyright (c) 2004 Oleg Berngardt. All rights reserved.
Copyright (c) 2004 Alexander Djourik. All rights reserved.

mode: 0

===========================================
Track: 01. Тече вода
Quality: CDDA 100%
===========================================
Track: 02. Гай, зелений гай
Quality: CDDA 100%
===========================================
Track: 03. Зачаруй
Quality: MPEG 95%
===========================================
Track: 04. Горянка
Quality: CDDA 99%
===========================================
Track: 05. Балада про дві скрипки
Quality: CDDA 100%
===========================================
Track: 06. Як тебе знайти
Quality: CDDA 49%
===========================================
Track: 07. Запитай у серця
Quality: CDDA 100%
===========================================
Track: 08. Білі лілеї
Quality: CDDA 99%
===========================================
Track: 09. Стожари
Quality: CDDA 100%
===========================================
Track: 10. Папороть цвіте
Quality: CDDA 100%
===========================================
Track: 11. Ой, у полі рута, рута
Quality: CDDA 100%
===========================================
Track: 12. Ти скажи, промов (Котики вербові)
Quality: CDDA 42%
===========================================
Track: 13. Скрипка грає
Quality: MPEG 89%
===========================================
Track: 14. Минає день
Quality: MPEG 95%
===========================================
Track: 15. Квітка розмарія
Quality: CDDA 58%
===========================================
Track: 16. Половина саду квітне
Quality: MPEG 95%
===========================================
Track: 17. Три дороги
Quality: MPEG 100%
===========================================
Track: 18. Ой, там, на горі
Quality: CDDA 42%
===========================================
Track: 19. Там, де ясні зорі
Quality: CDDA 100%
===========================================
Track: 20. Ти — земле моя
Quality: CDDA 100%
===========================================
Track: 21. Пісня про пісню
Quality: CDDA 100%
===========================================
Інструментальні хіти української естради (2005)


Пісні:
    01. Симфонічний оркестр Українського радіо - Києве мій
    02. Естрадно-симфонічний оркестр Українського радіо - Парафраз на тему пісні «Два кольори»
    03. Естрадно-симфонічний оркестр Українського радіо - Ясени
    04. Естрадно-симфонічний оркестр Українського радіо - Червоні маки
    05. Інструментальний ансамбль «Новий день» - Три поради
    06. Естрадно-симфонічний оркестр Українського радіо - Композиція на тему пісні «Народження дня»
    07. Симфонічний оркестр Українського радіо - Соняшник (з к/ф «Золоті литаври»)
    08. Естрадно-симфонічний оркестр Українського радіо - Молдованочка
    09. Естрадно-симфонічний оркестр Українського радіо - Моя любов — моя земля
    10. Естрадно-симфонічний оркестр Українського радіо - Дзвенить у зорях небо чисте
    11. Естрадно-симфонічний оркестр Українського радіо - Цвітуть осінні тихі небеса
    12. Естрадно-симфонічний оркестр Українського радіо - Парафраз на тему пісні «Осіннє золото»
    13. Вагіф Мустафа-заде - Парафраз на тему пісні «Пісня про рушник»
    14. ВІА «Кобза» - Ніч така місячна
    15. Біг Бенд Олександра Шаповала - Їхав козак за Дунай
    16. Концертний оркестр Київського цирку - Парафраз на тему пісні «Намалюй мені ніч»
    17. Естрадно-симфонічний оркестр Українського радіо - Марічка
    18. Естрадно-симфонічний оркестр Українського радіо - Очі волошкові
    19. Камерний ансамбль «Рідні наспіви» - Фантазія на тему пісні «Київський вальс»
    20. Інструментальний ансамбль Українського радіо - Рідна земле моя

Тривалість: 01:11:43
Мова: без слів
Аудіо-кодек: APE
Бітрейт: 615 кб/с
Джерело: власний ріп
Тип ріпу: image + cue + covers
EAC Log

Exact Audio Copy V1.0 beta 2 from 29. April 2011

EAC extraction logfile from 27. February 2013, 9:53

Various / Інструментальні хіти української естради [Золота колекція]

Used drive : Optiarc DVD RW AD-7200A Adapter: 0 ID: 0

Read mode : Secure
Utilize accurate stream : Yes
Defeat audio cache : Yes
Make use of C2 pointers : No

Read offset correction : 48
Overread into Lead-In and Lead-Out : No
Fill up missing offset samples with silence : Yes
Delete leading and trailing silent blocks : No
Null samples used in CRC calculations : Yes
Used interface : Native Win32 interface for Win NT & 2000

Used output format : Internal WAV Routines
Sample format : 44.100 Hz; 16 Bit; Stereo

TOC of the extracted CD

Track | Start | Length | Start sector | End sector
---------------------------------------------------------
1 | 0:00.00 | 1:20.41 | 0 | 6040
2 | 1:20.41 | 5:08.39 | 6041 | 29179
3 | 6:29.05 | 2:47.30 | 29180 | 41734
4 | 9:16.35 | 4:35.27 | 41735 | 62386
5 | 13:51.62 | 3:38.73 | 62387 | 78809
6 | 17:30.60 | 3:07.03 | 78810 | 92837
7 | 20:37.63 | 3:35.54 | 92838 | 109016
8 | 24:13.42 | 2:33.63 | 109017 | 120554
9 | 26:47.30 | 5:53.03 | 120555 | 147032
10 | 32:40.33 | 4:50.63 | 147033 | 168845
11 | 37:31.21 | 3:21.15 | 168846 | 183935
12 | 40:52.36 | 5:17.37 | 183936 | 207747
13 | 46:09.73 | 3:48.46 | 207748 | 224893
14 | 49:58.44 | 2:28.48 | 224894 | 236041
15 | 52:27.17 | 4:51.29 | 236042 | 257895
16 | 57:18.46 | 3:25.13 | 257896 | 273283
17 | 60:43.59 | 3:26.06 | 273284 | 288739
18 | 64:09.65 | 3:35.09 | 288740 | 304873
19 | 67:44.74 | 2:37.25 | 304874 | 316673
20 | 70:22.24 | 1:21.07 | 316674 | 322755

Range status and errors

Selected range

Filename D:\Music\Various - Інструментальні хіти української естради [Золота колекція] (2005)\Various - Інструментальні хіти української естради [Золота колекція].wav

Peak level 98.9 %
Extraction speed 4.2 X
Range quality 100.0 %
Copy CRC 23EB7C1C
Copy OK

No errors occurred

End of status report
Audiochecker

fooCDtect - foobar2000 + auCDtect, baralgin.

auCDtect: CD records authenticity detector, version 0.8.2
Copyright (c) 2004 Oleg Berngardt. All rights reserved.
Copyright (c) 2004 Alexander Djourik. All rights reserved.

mode: 0

=======================================================
Track: 01 - Києве мій
Quality: CDDA, 100%
=======================================================
Track: 02 - Парафраз на тему пісні «Два кольори»
Quality: CDDA, 58%
=======================================================
Track: 03 - Ясени
Quality: CDDA, 85%
=======================================================
Track: 04 - Червоні маки
Quality: CDDA, 100%
=======================================================
Track: 05 - Три поради
Quality: CDDA, 100%
=======================================================
Track: 06 - Композиція на тему пісні «Народження дня»
Quality: CDDA, 58%
=======================================================
Track: 07 - Соняшник (з к-ф «Золоті литаври»)
Quality: CDDA, 100%
=======================================================
Track: 08 - Молдованочка
Quality: CDDA, 100%
=======================================================
Track: 09 - Моя любов — моя земля
Quality: CDDA, 100%
=======================================================
Track: 10 - Дзвенить у зорях небо чисте
Quality: CDDA, 100%
=======================================================
Track: 11 - Цвітуть осінні тихі небеса
Quality: CDDA, 100%
=======================================================
Track: 12 - Парафраз на тему пісні «Осіннє золото»
Quality: CDDA, 100%
=======================================================
Track: 13 - Парафраз на тему пісні «Пісня про рушник»
Quality: MPEG, 100%
=======================================================
Track: 14 - Ніч така місячна
Quality: CDDA, 43%
=======================================================
Track: 15 - Їхав козак за Дунай
Quality: CDDA, 100%
=======================================================
Track: 16 - Парафраз на тему пісні «Намалюй мені ніч»
Quality: CDDA, 100%
=======================================================
Track: 17 - Марічка
Quality: CDDA, 99%
=======================================================
Track: 18 - Очі волошкові
Quality: CDDA, 100%
=======================================================
Track: 19 - Фантазія на тему пісні «Київський вальс»
Quality: CDDA, 85%
=======================================================
Track: 20 - Рідна земле моя
Quality: CDDA, 100%
=======================================================
Тривалість: 06:09:07
Мова: українська
Аудіо-кодек: APE
Бітрейт: 505-695 кб/с
Джерело: власний ріп

Додаткова інформація:
Ця колекція має дуже характерне власне обличчя, яке капітально відрізняється від обличчя теперішньої музики.
Цілком можливо, Ви будете здивовані тим, що тут почуєте. Втім, цей факт вже сам по собі свідчить про якість представлених тут пісень – покоління ідуть, а пісні залишаються. До речі, більша частина з цих пісень час від часу з’являється в ефірі – але вже з оновленими, здебільшого, аранжуваннями. І це теж, безумовно, є красномовним свідченням їхньої якості – порожні пісні забуваються швидко. Але в цій колекції їх можна почути у, так би мовити, оригінальному вигляді. Тобто саме такими, якими вони набули колись своєї популярності.
Або Ви вже давно знаєте всі ці пісні – і тоді приємно буде зайвий раз їх послухати, згадати часи, коли вони прозвучали вперше і звучали постійно. Так давно – так недавно. Або ж Ви знаєте кілька з них, і тому маєте загальне уявлення – але цього може бути замало. Звісно, у тому разі, якщо подобається те, що вже було почуто раніше. Втім, все це не дуже важливо. Тому що ці пісні – не просто настрій, це щось більше. Вони – окремий вимір, і справа тут не просто в часі як складовій частині ностальгії. Нинішні пісні звучать по-іншому, і далеко не завжди є в них стільки простоти, відкритості почуттів. Мова не тільки і не стільки про слова, скільки про саме звучання. Погодьтеся, є в звучанні оркестру щось таке, чого не замінять ніякі сучасні навороти. Недарма ж досить популярною тенденцією є оркестрування сучасних естрадних творів. А на цих двох дисках – все в чистому вигляді, без домішок. І, мабуть, саме тому – так душевно, тепло. Та й звучання тодішніх ВІА теж має в собі щось неповторно-ніжне, навіть в чомусь наївне.
До цієї колекції входить ціла пісенна епоха. Вся ж разом вона створює дуже цікаву атмосферу – але її легше відчути, аніж переказати. Наша історія...




Якщо Ви справді бажаєте підтримати українське - після прослуховування, якщо музика вам сподобалась, придбайте ліцензійний диск. Підтримаймо вітчизняних виконавців!


Срібний реліз (на рейтинг впливає 50% завантаженого)
 Трекер:    Зареєстрований   

Завантажити / скачати українську музику



відео для новачків



 Зареєстрований:   2016-01-01 22:22
 Розмір:   1.78 GB 
 Оцінка музики:   10/10 (Голосів: 19)
   
civ 
VIP


З нами з: 16.02.11
Востаннє: 04.12.16
Повідомлень: 429

2013-02-26 22:27  
Далі буде
civ 
VIP


З нами з: 16.02.11
Востаннє: 04.12.16
Повідомлень: 429

2013-02-27 18:16  
Ось, додав ще 2 диски.
civ 
VIP


З нами з: 16.02.11
Востаннє: 04.12.16
Повідомлень: 429

2016-01-01 22:24  
Додав хіти 80-х та замінив все на APE.
Ваш часовий пояс: GMT + 2 Години

Нова тема   Відповісти