Завантажити та скачати торренти українською


VA - Чічері. Українські народні пісні у виконанні українських ВІА [Золота колекція] (2004) [FLAC] | Folk

Нові коментарі

Нова тема   Відповісти
Автор Повідомлення
civ 
VIP


З нами з: 16.02.11
Востаннє: 10.12.16
Повідомлень: 429

2013-02-26 21:56  
VA - Чічері. Українські народні пісні у виконанні українських ВІА [Золота колекція] (2004) [FLAC] | Folk

VA - Чічері. Українські народні пісні у виконанні українських ВІА [Золота колекція] (2004) [FLAC] | Folk


Стиль: Folk
Країна, місто: Україна
Видавець: Астра Рекордс

Пісні:
    01. ВІА «Червона рута» - Чічері
    02. Ансамбль «Мрія» - Тече вода каламутна
    03. Ольга Осипчук, ВІА «Світязь» - Ой, ти, жайворонку
    04. ВІА «Візерунки шляхів» - Коло млина калина
    05. ВІА «Ватра» - Зозуленька біла
    06. ВІА «Кобза» - Через річеньку
    07. ВІА «Світязь» - А над водою верба
    08. Тріо Маренич - Несе Галя воду
    09. ВІА «Кобза» - Ой, поїхав за снопами
    10. ВІА «Медобори» - Мав я люльку-черепульку
    11. Дует «Два кольори» - Підманула, підвела
    12. Іван Попович, група «Настрій» - Мила моя
    13. ВІА «Кобза» - А Марія вареники чине
    14. Тріо Маренич - Ой, під вишнею
    15. ВІА «Кобза» - Ой, там, за лісочком
    16. ВІА «Смерічка» - Повіяв вітер степовий
    17. ВІА «Водограй» - Дівчина мила
    18. Тріо Маренич - Чом ти не прийшов
    19. ВІА «Кобза» - Ой, кинув я бук
    20. ВІА «Візерунки шляхів» - Била мене мати
    21. Дует «Два кольори» - Ой, на горі білий камінь
    22. ВІА «Кобза» - Діду з бородою
    23. ВІА «Смерічка» - Порізала м пальчик
    24. ВІА «Краяни» - Сусідко Марічка
    25. Валерій Куцевалов, Оксана Хожай, група «Візит» - Калина
    26. Гурт «Плай» - Жайворонок

Тривалість: 01:15:52
Мова: українська
Аудіо-кодек: FLAC
Бітрейт: 840 кб/с
Джерело: власний ріп
Тип ріпу: image + cue + covers
EAC Log

Exact Audio Copy V1.0 beta 2 from 29. April 2011

EAC extraction logfile from 26. February 2013, 9:35

Various / Чічері. Українські народні пісні у виконанні українських ВІА [Золота колекція]

Used drive : Optiarc DVD RW AD-7200A Adapter: 0 ID: 0

Read mode : Secure
Utilize accurate stream : Yes
Defeat audio cache : Yes
Make use of C2 pointers : No

Read offset correction : 48
Overread into Lead-In and Lead-Out : No
Fill up missing offset samples with silence : Yes
Delete leading and trailing silent blocks : No
Null samples used in CRC calculations : Yes
Used interface : Native Win32 interface for Win NT & 2000

Used output format : Internal WAV Routines
Sample format : 44.100 Hz; 16 Bit; Stereo

TOC of the extracted CD

Track | Start | Length | Start sector | End sector
---------------------------------------------------------
1 | 0:00.00 | 3:39.35 | 0 | 16459
2 | 3:39.35 | 2:41.47 | 16460 | 28581
3 | 6:21.07 | 2:05.08 | 28582 | 37964
4 | 8:26.15 | 3:04.05 | 37965 | 51769
5 | 11:30.20 | 2:08.43 | 51770 | 61412
6 | 13:38.63 | 1:54.18 | 61413 | 69980
7 | 15:33.06 | 2:52.42 | 69981 | 82922
8 | 18:25.48 | 3:46.28 | 82923 | 99900
9 | 22:12.01 | 2:46.46 | 99901 | 112396
10 | 24:58.47 | 2:45.11 | 112397 | 124782
11 | 27:43.58 | 3:27.25 | 124783 | 140332
12 | 31:11.08 | 2:54.31 | 140333 | 153413
13 | 34:05.39 | 2:32.70 | 153414 | 164883
14 | 36:38.34 | 2:05.59 | 164884 | 174317
15 | 38:44.18 | 2:18.37 | 174318 | 184704
16 | 41:02.55 | 3:32.08 | 184705 | 200612
17 | 44:34.63 | 2:56.19 | 200613 | 213831
18 | 47:31.07 | 3:46.03 | 213832 | 230784
19 | 51:17.10 | 1:59.52 | 230785 | 239761
20 | 53:16.62 | 2:58.28 | 239762 | 253139
21 | 56:15.15 | 2:42.34 | 253140 | 265323
22 | 58:57.49 | 2:51.08 | 265324 | 278156
23 | 61:48.57 | 2:35.30 | 278157 | 289811
24 | 64:24.12 | 3:47.40 | 289812 | 306876
25 | 68:11.52 | 4:38.19 | 306877 | 327745
26 | 72:49.71 | 3:02.27 | 327746 | 341422

Range status and errors

Selected range

Filename D:\Music\Various - Чічері. Українські народні пісні у виконанні українських ВІА [Золота колекція] (2004)\Various - Чічері. Українські народні пісні у виконанні українських ВІА [Золота колекція].wav

Peak level 99.4 %
Extraction speed 4.5 X
Range quality 100.0 %
Copy CRC 0476F1CF
Copy OK

No errors occurred

End of status report
Audiochecker

fooCDtect - foobar2000 + auCDtect, baralgin.

auCDtect: CD records authenticity detector, version 0.8.2
Copyright (c) 2004 Oleg Berngardt. All rights reserved.
Copyright (c) 2004 Alexander Djourik. All rights reserved.

mode: 0

=======================================================
Track: 01 - Чічері
Quality: CDDA, 100%
=======================================================
Track: 02 - Тече вода каламутна
Quality: CDDA, 100%
=======================================================
Track: 03 - Ой, ти, жайворонку
Quality: CDDA, 100%
=======================================================
Track: 04 - Коло млина калина
Quality: CDDA, 86%
=======================================================
Track: 05 - Зозуленька біла
Quality: CDDA, 99%
=======================================================
Track: 06 - Через річеньку
Quality: CDDA, 100%
=======================================================
Track: 07 - А над водою верба
Quality: CDDA, 100%
=======================================================
Track: 08 - Несе Галя воду
Quality: CDDA, 100%
=======================================================
Track: 09 - Ой, поїхав за снопами
Quality: CDDA, 100%
=======================================================
Track: 10 - Мав я люльку-черепульку
Quality: CDDA, 100%
=======================================================
Track: 11 - Підманула, підвела
Quality: CDDA, 100%
=======================================================
Track: 12 - Мила моя
Quality: CDDA, 100%
=======================================================
Track: 13 - А Марія вареники чине
Quality: CDDA, 99%
=======================================================
Track: 14 - Ой, під вишнею
Quality: CDDA, 100%
=======================================================
Track: 15 - Ой, там, за лісочком
Quality: CDDA, 100%
=======================================================
Track: 16 - Повіяв вітер степовий
Quality: CDDA, 100%
=======================================================
Track: 17 - Дівчина мила
Quality: CDDA, 100%
=======================================================
Track: 18 - Чом ти не прийшов
Quality: CDDA, 100%
=======================================================
Track: 19 - Ой, кинув я бук
Quality: CDDA, 92%
=======================================================
Track: 20 - Била мене мати
Quality: CDDA, 100%
=======================================================
Track: 21 - Ой, на горі білий камінь
Quality: CDDA, 100%
=======================================================
Track: 22 - Діду з бородою
Quality: CDDA, 100%
=======================================================
Track: 23 - Порізала м пальчик
Quality: CDDA, 100%
=======================================================
Track: 24 - Сусідко Марічка
Quality: CDDA, 100%
=======================================================
Track: 25 - Калина
Quality: CDDA, 100%
=======================================================
Track: 26 - Жайворонок
Quality: CDDA, 100%
=======================================================
Додаткова інформація:
Найстаріший з цих записів зроблено ще у 1972 році, а найближчий до нашого часу – у році 1992, коли Україна стала вже окремою державою. Двадцять років, за які змінилося три епохи. Тодішні діти вже мають своїх дітей, але у пісень – свій часовий вимір. Сьогодні їх співають усі, завтра майже ніхто, а післязавтра їх знову згадують – і часто такими, якими вони були сьогодні. Так сталося і з цими піснями, і не тому тільки, що вони народні, тобто – майже вічні. Тут є, гадаю, дві причини. Одна полягає у пам’яті, а точніше – у ностальгії за тими часами. А ще точніше – за молодістю, коли так просто сприймати яскравість і красу всього життя. Але є ще одна причина, через яку згадують нині ці пісні саме у виконанні тодішніх ВІА. Адже це – чи не перші спроби виконати народні пісні з допомогою сучасних засобів та інструментів, перекласти їхню музику на сучасну мову. А двадцять років – вже справжня історія всередині історії. Втім, сьогодні ми, гадаю, не оцінюємо ці спроби на вдалість. Ми просто слухаємо.

Умка


Якщо Ви справді бажаєте підтримати українське - після прослуховування, якщо музика вам сподобалась, придбайте ліцензійний диск. Підтримаймо вітчизняних виконавців!


Срібний реліз (на рейтинг впливає 50% завантаженого)
 Трекер:    Зареєстрований   

Завантажити / скачати українську музику



відео для новачків



 Зареєстрований:   2013-02-26 21:56
 Розмір:   486 MB 
 Оцінка музики:   10/10 (Голосів: 9)
   
Ваш часовий пояс: GMT + 2 Години

Нова тема   Відповісти