Завантажити та скачати торренти українською


Джиперс Кріперс / Jeepers Creepers (2001) 720p Ukr/Eng | Sub Eng

Нові коментарі

Нова тема   Відповісти
Автор Повідомлення
braveboy 
Відео Гуртом - команда HD
Відео Гуртом - команда HD


З нами з: 15.06.10
Востаннє: 29.10.16
Повідомлень: 958

2013-02-26 19:19  

Джиперс Кріперс / Jeepers Creepers (2001) 720p Ukr/Eng | Sub Eng


Джиперс Кріперс / Jeepers Creepers (2001) 720p Ukr/Eng | Sub Eng

«What's eating you?»

Жанр: жахи, трилер, драма
Країна: США



Кіностудія / кінокомпанія: American Zoetrope Pictures
Режисер: Віктор Сальва / Victor Salva
Актори: Джина Філіпс / Gina Philips / Джастін Лонг / Justin Long / Джонатан Брек / Jonathan Breck / Айлін Бреннан / Eileen Brennan / Брендон Сміт / Brandon Smith

Сюжет:
Якби Деррі і Тріш знали, на що перетвориться їх звичайна подорож додому на канікули, то залишилися б у коледжі назавжди. Брат і сестра помітили ЙОГО на безлюдній дорозі поруч із моторошною, старою церквою. Страшна постать в довгому чорному плащі й крислатому капелюсі скидала в підвал згортки, забруднені чимось червоним. Після побаченого потрібно було негайно, втиснути педаль газу взятої напрокат машини та помчати від цього проклятого місця якнайдалі. Але Деррі і Тріш допустили смертельну помилку. Вони вирішили повернутися і подивитися: що ж ВІН ховає там, в підвалі похилої церкви? Ця нерозумна цікавість обернулася самим неймовірним кошмаром, який тільки можна собі уявити...



Тривалість: 01:30:39
Якість: 720p
Відео:
кодек:
розмір кадру: 1280 х 692
бітрейт: 4963 кб/с

Аудіо # 1:
мова: українська
переклад: багатоголосий закадровий
кодек: 5.1
бітрейт: 384 кб/с

Аудіо # 2:
мова: англійська
переклад: оригінал
кодек: 5.1
бітрейт: 1536 кб/с

Джерело озвучення:


Субтитри:
мова: англійська
тип: програмні (м'які)
формат: *.srt
720p by braveboy
MediaInfo
Format : Matroska
Format version : Version 2
File size : 4.35 GiB
Duration : 1h 30mn
Overall bit rate : 6 851 Kbps
Movie name : Jeepers Creepers (2001) 720p by braveboy
Encoded date : UTC 2012-09-28 01:51:23
Writing application : mkvmerge v5.8.0 ('No Sleep / Pillow') built on Sep 2 2012 15:37:04
Writing library : libebml v1.2.3 + libmatroska v1.3.0

Video
ID : 1
Format : AVC
Format/Info : Advanced Video Codec
Format profile : [email protected]
Format settings, CABAC : Yes
Format settings, ReFrames : 8 frames
Codec ID : V_MPEG4/ISO/AVC
Duration : 1h 30mn
Bit rate : 4 963 Kbps
Width : 1 280 pixels
Height : 692 pixels
Display aspect ratio : 1.85:1
Frame rate mode : Constant
Frame rate : 23.976 fps
Color space : YUV
Chroma subsampling : 4:2:0
Bit depth : 8 bits
Scan type : Progressive
Bits/(Pixel*Frame) : 0.234
Stream size : 3.06 GiB (70%)
Title : Jeepers Creepers (2001) 720p by braveboy
Writing library : core 125 r2208 d9d2288
Encoding settings : cabac=1 / ref=8 / deblock=1:-3:-3 / analyse=0x3:0x133 / me=umh / subme=9 / psy=1 / psy_rd=0.80:0.00 / mixed_ref=1 / me_range=24 / chroma_me=1 / trellis=1 / 8x8dct=1 / cqm=0 / deadzone=21,11 / fast_pskip=0 / chroma_qp_offset=-2 / threads=6 / lookahead_threads=1 / sliced_threads=0 / nr=0 / decimate=0 / interlaced=0 / bluray_compat=0 / constrained_intra=0 / bframes=7 / b_pyramid=2 / b_adapt=2 / b_bias=0 / direct=1 / weightb=1 / open_gop=0 / weightp=2 / keyint=240 / keyint_min=23 / scenecut=40 / intra_refresh=0 / rc=2pass / mbtree=0 / bitrate=4963 / ratetol=1.0 / qcomp=0.60 / qpmin=10 / qpmax=51 / qpstep=4 / cplxblur=20.0 / qblur=0.5 / ip_ratio=1.40 / pb_ratio=1.30 / aq=1:1.00
Default : Yes
Forced : No

Audio #1
ID : 2
Format : AC-3
Format/Info : Audio Coding 3
Mode extension : CM (complete main)
Format settings, Endianness : Big
Codec ID : A_AC3
Duration : 1h 30mn
Bit rate mode : Constant
Bit rate : 384 Kbps
Channel(s) : 6 channels
Channel positions : Front: L C R, Side: L R, LFE
Sampling rate : 48.0 KHz
Bit depth : 16 bits
Compression mode : Lossy
Stream size : 250 MiB (6%)
Title : 5.1 - 384 kbps [K1]
Language : Ukrainian
Default : Yes
Forced : No

Audio #2
ID : 3
Format :
Format/Info : Digital Theater Systems
Mode : 16
Format settings, Endianness : Big
Codec ID : A_DTS
Duration : 1h 30mn
Bit rate mode : Constant
Bit rate : 1 509 Kbps
Channel(s) : 6 channels
Channel positions : Front: L C R, Side: L R, LFE
Sampling rate : 48.0 KHz
Bit depth : 24 bits
Compression mode : Lossy
Stream size : 982 MiB (22%)
Title : 5.1 - 1510 kbps
Language : English
Default : No
Forced : No

Text
ID : 4
Format : UTF-8
Codec ID : S_TEXT/UTF8
Codec ID/Info : UTF-8 Plain Text
Title : Full
Language : English
Default : No
Forced : No

Menu
00:00:00.000 : en:00:00:00.000
00:01:28.338 : en:00:01:28.338
00:04:37.986 : en:00:04:37.986
00:08:09.030 : en:00:08:09.030
00:10:04.979 : en:00:10:04.979
00:13:31.978 : en:00:13:31.978
00:16:00.543 : en:00:16:00.543
00:20:31.605 : en:00:20:31.605
00:26:00.934 : en:00:26:00.934
00:30:24.448 : en:00:30:24.448
00:32:14.266 : en:00:32:14.266
00:34:49.379 : en:00:34:49.379
00:38:41.444 : en:00:38:41.444
00:43:16.385 : en:00:43:16.385
00:50:04.627 : en:00:50:04.627
00:55:38.585 : en:00:55:38.585
01:01:41.781 : en:01:01:41.781
01:03:13.289 : en:01:03:13.289
01:08:05.331 : en:01:08:05.331
01:09:40.760 : en:01:09:40.760
01:13:22.565 : en:01:13:22.565
01:16:06.562 : en:01:16:06.562
01:21:18.207 : en:01:21:18.207
01:24:56.091 : en:01:24:56.091
Скріншоти




Особиста оцінка: 10 - без зайвих вагань рекомендую всім!



Срібний реліз (на рейтинг впливає 50% завантаженого)
 Трекер:    Зареєстрований   

Завантажити / скачати фільм українською



відео для новачків



 Зареєстрований:   2013-03-01 04:59
 Розмір:   4.35 GB 
 Оцінка фільму:   8.9/10 (Голосів: 15)
   
bot 
робот


З нами з: 30.09.07
Востаннє: 26.05.05
Повідомлень: 16048

2013-02-26 19:19  
Тему перенесено з Фільми в HD до форуму Анонси релізів від Відео Гуртом


braveboy

Ivan 666 
Новенький


З нами з: 12.02.13
Востаннє: 30.05.13
Повідомлень: 1

2013-02-28 21:03  
Але фільм вже є українською мовою.
braveboy 
Відео Гуртом - команда HD
Відео Гуртом - команда HD


З нами з: 15.06.10
Востаннє: 29.10.16
Повідомлень: 958

2013-02-28 21:13  
Ivan 666 написано:
Але фільм вже є українською мовою.

читай уважніше
braveboy написано:
720p

bot 
робот


З нами з: 30.09.07
Востаннє: 26.05.05
Повідомлень: 16048

2013-03-01 04:58  
Тему перенесено з Анонси релізів від Відео Гуртом до форуму Фільми в HD


braveboy

vovchyck 
Свій


З нами з: 22.02.09
Востаннє: 10.12.16
Повідомлень: 146

2013-03-01 15:31  
"самим неймовірним". Слово "самих", "сама", "саме" в порівняннях не вживається
roldan 
Новенький


З нами з: 12.04.08
Востаннє: 10.12.16
Повідомлень: 14

2013-05-16 11:09  
Цікаво, чи буде друга частина в HD?
boroznaya 
VIP


З нами з: 02.11.12
Востаннє: 10.12.16
Повідомлень: 1886

2014-12-15 21:14  
Бізцінний шедевр, алмаз в своєму жанрі, таких фільмів дуже мало. Спасибі релізеру за можливість переглянути дану класику в такій хорошій якості та в українському перекладі! Однозначно в колекцію!
Ваш часовий пояс: GMT + 2 Години

Нова тема   Відповісти