Завантажити та скачати торренти українською


Рейс / Flight (2012) 1080p Ukr/Eng | Sub Ukr/Eng

Нові коментарі

Нова тема   Відповісти
Автор Повідомлення
Anonymous 







2013-02-26 10:54  
Рейс / Flight (2012) 1080p Ukr/Eng | Sub Ukr/Eng

Рейс / Flight (2012) 1080p Ukr/Eng | Sub Ukr/Eng


Жанр: драма
Країна: США



Кіностудія / кінокомпанія: ImageMovers , Paramount Pictures , Parkes/MacDonald Productions
Режисер: Роберт Земекіс / Robert Zemeckis
Актори: Дензел Вашинґтон / Denzel Washington, Келлі Рейлі / Kelly Reilly, Брюс Ґрінвуд / Bruce Greenwood, Дон Чідл / Don Cheadle, Джон Ґудмен / John Goodman, Тамара Тьюні / Tamara Tunie, Браян Джераті / Brian Geraghty, Мелісса Лео / Melissa Leo, Надін Веласкес / Nadine Velazquez, Майкл Біслі / Michael Beasley, Раві Карпур / Ravi Kapoor, Ділан Кассман / Dylan Kussman, Ґарсел Беуаіс / Garcelle Beauvais, Вілл Шеррод / Will Sherrod, Картер Кабасса / Carter Cabassa

рейтинг MPAA: R - дітям до 17 років обов'язкова присутність батьків або дорослого опікуна

Сюжет:
Під час авіакатастрофи капітан екіпажу здійснює неможливе, він майстерно садить літак і тим самим рятує велику кількість людських життів. Та аналіз крові, який було здійснено перед роковим рейсом виявив, що вміст алкоголю у крові пілота перевищує норму. Доведеться з'ясувати яке зі загальноприйнятих соціальних правил є істинним: героїв не судять чи перед законом всі рівні?


Тривалість: 02:18:35
Якість: 1080p
Відео:
кодек:
розмір кадру: 1920x800
бітрейт: 6738 кб/с

Аудіо # 1:
мова: українська
переклад: професійний дубльований
кодек: 5.1
бітрейт: 448 кб/с
Інформація про дубляж
Перекладач і автор синхронного тексту: Федір Сидорук
Режисер дубляжу: Анна Пащенко
Ролі дублювали: Дензел Вашинґтон/Віп — Юрій Ребрик, Келлі Райлі/Ніколь — Інна Бєлікова, Брюс Ґрінвуд/Чарлі — Микола Боклан, Дон Чідл/Г’ю Ланґ — Дмитро Вікулов, Джон Ґудмен/Гарлінґ — Олександр Ігнатуша; а також: Кирило Андреєв, Людмила Ардельян, Людмила Барбір, Катерина Башкіна-Зленко, Катерина Брайковська, Сергій Бриль, Михайло Войчук, Томмі Кейн/Марк Меллон — Ігор Волков, В’ячеслав Дудко, Адам Томей/Фран — Дмитро Завадський, Володимир Канівець, Микола Карцев, Олег Комаров, Максим Кондратюк, Марина Локтіонова, Іван Марченко, Андрій Мостренко, Мелісса Лео/Аллен Блок — Лідія Муращенко, Сергій Нікітін, Євген Пашин, Ярослав Розенко, Наталя Романько, Тамара Туні/Марґарет — Лариса Руснак, Дмитро Сова, Сергій Солопай, Юрій Сосков, Людмила Суслова, Коннор О’Ніл/Кіп — Андрій Твердак, Джеймс Бейдж Дейл/Хворий на рак — Дмитро Терещук, Браян Ґераті/Кен Еванс — Михайло Тишин, Чарлі Е. Шмідт/Тікі Пот — Андрій Федінчик, Олексі Череватенко, Роман Чорний, Раві Капур/Д-р Кенан — Роман Чупіс, Євген Шах, Ґарсель Б’ювейс/Діна — Наталя Ярошенко, Юрій Кудрявець та інші.

Фільм перекладено і дубльовано на студії LeDoyen Studio
Аудіо # 2:
мова: англійська
переклад: оригінал
кодек: 5.1
бітрейт: 640 кб/с

Субтитри #1:
мова: українська (форсовані)
тип: програмні (м'які)
формат: *.srt

Субтитри #2:
мова: українська (повні)
тип: програмні (м'які)
формат: *.srt

Субтитри #3:
мова: англійська (повні)
тип: програмні (м'які)
формат: *.srt

Збережені оригінальні розділи, як на Blu-ray.
MediaInfo
General
Unique ID : 197308801244890890756036885910632892606 (0x94704AF8EE0C6FBCB0A2BD75B60D88BE)
Complete name : Flight.2012..1080p.Ukr.Eng.mkv
Format : Matroska
Format version : Version 4 / Version 2
File size : 7.58 GiB
Duration : 2h 18mn
Overall bit rate : 7 826 Kbps
Movie name : Рейс / Flight / Экипаж (2012)
Encoded date : UTC 2013-02-26 07:57:34
Writing application : mkvmerge v6.0.0 ('Coming Up For Air') built on Jan 20 2013 09:52:00
Writing library : libebml v1.3.0 + libmatroska v1.4.0

Video
ID : 1
Format : AVC
Format/Info : Advanced Video Codec
Format profile : [email protected]
Format settings, CABAC : Yes
Format settings, ReFrames : 5 frames
Codec ID : V_MPEG4/ISO/AVC
Duration : 2h 18mn
Bit rate : 6 738 Kbps
Width : 1 920 pixels
Height : 800 pixels
Display aspect ratio : 2.40:1
Frame rate mode : Constant
Frame rate : 23.976 fps
Color space : YUV
Chroma subsampling : 4:2:0
Bit depth : 8 bits
Scan type : Progressive
Bits/(Pixel*Frame) : 0.183
Stream size : 6.37 GiB (84%)
Title : rip by Boriy, release by igor911 [Hurtom]
Writing library : core 129 r2245 bc13772
Encoding settings : cabac=1 / ref=5 / deblock=1:0:0 / analyse=0x3:0x113 / me=umh / subme=10 / psy=1 / psy_rd=1.00:0.10 / mixed_ref=1 / me_range=32 / chroma_me=1 / trellis=2 / 8x8dct=1 / cqm=0 / deadzone=21,11 / fast_pskip=0 / chroma_qp_offset=-2 / threads=12 / lookahead_threads=2 / sliced_threads=0 / nr=0 / decimate=0 / interlaced=0 / bluray_compat=0 / constrained_intra=0 / bframes=5 / b_pyramid=2 / b_adapt=2 / b_bias=0 / direct=3 / weightb=1 / open_gop=0 / weightp=2 / keyint=240 / keyint_min=23 / scenecut=40 / intra_refresh=0 / rc=2pass / mbtree=0 / bitrate=6738 / ratetol=1.0 / qcomp=0.60 / qpmin=0 / qpmax=69 / qpstep=4 / cplxblur=20.0 / qblur=0.5 / ip_ratio=1.40 / pb_ratio=1.30 / aq=1:0.80
Language : English
Default : Yes
Forced : No

Audio #1
ID : 2
Format : AC-3
Format/Info : Audio Coding 3
Mode extension : CM (complete main)
Format settings, Endianness : Big
Codec ID : A_AC3
Duration : 2h 18mn
Bit rate mode : Constant
Bit rate : 448 Kbps
Channel(s) : 6 channels
Channel positions : Front: L C R, Side: L R, LFE
Sampling rate : 48.0 KHz
Bit depth : 16 bits
Compression mode : Lossy
Stream size : 444 MiB (6%)
Title : Dub LeDoyen Studio Lic.DVD 5.1 448 Kbps
Language : Ukrainian
Default : Yes
Forced : No

Audio #2
ID : 3
Format : AC-3
Format/Info : Audio Coding 3
Mode extension : CM (complete main)
Format settings, Endianness : Big
Codec ID : A_AC3
Duration : 2h 18mn
Bit rate mode : Constant
Bit rate : 640 Kbps
Channel(s) : 6 channels
Channel positions : Front: L C R, Side: L R, LFE
Sampling rate : 48.0 KHz
Bit depth : 16 bits
Compression mode : Lossy
Stream size : 634 MiB (8%)
Title : Original
Language : English
Default : No
Forced : No

Text #1
ID : 4
Format : UTF-8
Codec ID : S_TEXT/UTF8
Codec ID/Info : UTF-8 Plain Text
Title : Ukr forced
Language : Ukrainian
Default : Yes
Forced : Yes

Text #2
ID : 5
Format : UTF-8
Codec ID : S_TEXT/UTF8
Codec ID/Info : UTF-8 Plain Text
Title : Ukr full
Language : Ukrainian
Default : No
Forced : No

Text #3
ID : 6
Format : UTF-8
Codec ID : S_TEXT/UTF8
Codec ID/Info : UTF-8 Plain Text
Title : Eng full
Language : English
Default : No
Forced : No

Menu
00:00:00.000 : :Chapter 1
00:09:32.572 : :Chapter 2
00:17:06.984 : :Chapter 3
00:26:16.783 : :Chapter 4
00:34:40.203 : :Chapter 5
00:45:42.614 : :Chapter 6
00:52:01.493 : :Chapter 7
01:00:46.768 : :Chapter 8
01:10:10.080 : :Chapter 9
01:19:30.807 : :Chapter 10
01:26:54.542 : :Chapter 11
01:37:05.236 : :Chapter 12
01:48:54.152 : :Chapter 13
01:55:20.121 : :Chapter 14
02:11:54.740 : :Chapter 15
02:18:35.098 : :Chapter 16


Джерело: ріп відео, оригінальні доріжка і саби - boriy (рутор), українська доріжка - HQ-ViDEO, укр.форсовані саби - subsvin2 (рутор), укр.повні саби - karvai0 (Гуртом)


 Трекер:    Зареєстрований   

Завантажити / скачати фільм українською



відео для новачків



 Зареєстрований:   2013-02-26 10:54
 Розмір:   7.58 GB 
 Оцінка фільму:   6.2/10 (Голосів: 24)
   
Інші релізи
   Рейс / Екіпаж / Flight (2012) 2xUkr/Eng | Sub Ukr/Eng karvai0  7 / 0   2.9 GB   2014-06-10 13:25 
   Рейс / Flight (2012) AVC Ukr/Eng | Sub Ukr/Eng AngryBirdsUA  1 / 0   2.18 GB   2013-02-21 19:43 
   Рейс / Flight (2012) 1080p Ukr/Eng | Sub Ukr/Eng ratbol  1 / 0   14.33 GB   2013-02-21 18:22 
   Рейс / Flight (2012) 720p Ukr/Eng | Sub Ukr/Eng ratbol  6 / 0   5.96 GB   2013-02-21 14:15 
   Рейс / Flight (2012) Jatx_11  8 / 0   1.46 GB   2013-02-20 23:48 
bot 
робот


З нами з: 30.09.07
Востаннє: 26.05.05
Повідомлень: 16005

2013-02-28 11:04  
Тему перенесено з Фінальний смітник до форуму Фільми в HD


ratbol

Anonymous 







2013-02-28 20:27  
Ось скріншоти порівняння релізу ratbol на 14,33 Гб і цього (7,58 Гб). Кому ліньки порівнювати - скажу очевидний висновок - тут якість відео ідентична при майже вдвічі меншій вазі релізу та майже вдвічі меншому бітрейті відео.
braveboy 
Відео Гуртом - команда HD
Відео Гуртом - команда HD


З нами з: 15.06.10
Востаннє: 29.10.16
Повідомлень: 958

2013-02-28 20:30  
igor911
в назві допиши mini

Anonymous 







2013-02-28 20:35  
Це не "міні".
Такий результат досягається кропітким підбором параметрів кодування, а не сліпим накручуванням бітрейту та інших параметрів на максимум.

ratbol 
Модератор HD


З нами з: 03.02.09
Востаннє: 05.12.16
Повідомлень: 1088

2013-02-28 20:47  
Як і було, міні заборонені. Це просто ще одна роздача 1080р.
igor911 написано:
кропітким підбором параметрів кодування

Не смішіть, пояснення одне - це відео добре стискається.

braveboy 
Відео Гуртом - команда HD
Відео Гуртом - команда HD


З нами з: 15.06.10
Востаннє: 29.10.16
Повідомлень: 958

2013-02-28 20:52  
ratbol написано:
Як і було, міні заборонені. Це просто ще одна роздача 1080р.


значить повтор у смітник

Anonymous 







2013-02-28 20:53  
Цитата:
у смітник

він тільки но звідти Happy

braveboy 
Відео Гуртом - команда HD
Відео Гуртом - команда HD


З нами з: 15.06.10
Востаннє: 29.10.16
Повідомлень: 958

2013-02-28 21:11  
igor911
ріп власний? лог кодування є?

Anonymous 







2013-02-28 21:29  
igor911 написано:
Джерело: ріп відео, оригінальні доріжка і саби - boriy (рутор)

логу нема

lenina4040 
Поважний учасник


З нами з: 03.11.12
Востаннє: 04.12.16
Повідомлень: 156

2014-02-26 20:49  
28 лютого будуть показувати на телеканалі НТН в 21:40. В ніч з 1 на 2 березня повтор в 02:00.
lenina4040 
Поважний учасник


З нами з: 03.11.12
Востаннє: 04.12.16
Повідомлень: 156

2014-02-28 22:59  
Зараз по НТН багатоголоса закадрова озвучка.
митяй-95 
Новенький


З нами з: 06.11.16
Востаннє: 18.11.16
Повідомлень: 3

2016-11-07 09:04  
Станьте, будь-ласка, хтось на роздачу
Ваш часовий пояс: GMT + 2 Години

Нова тема   Відповісти