Завантажити та скачати торренти українською


Життя прекрасне / La vita e'bella (1997) 720p Ukr/Ita

Нові коментарі

Нова тема   Відповісти
Автор Повідомлення
chaoscor 
Свій


З нами з: 17.10.10
Востаннє: 03.12.16
Повідомлень: 73

2013-02-25 21:46  
Життя прекрасне / La vita e'bella (1997) 720p Ukr/Ita

Життя прекрасне / La vita e'bella (1997) 720p Ukr/Ita


Жанр: драма, комедія, романтичний
Країна: Італія

Top 250 #53

Режисер: Роберто Беніньї
Актори: Роберто Беніньї, Ніколетта Браскі, Джорджіо Кантаріні, Джустіно Дурано, Серджіо Біні Бустрік, Маріса Паредес, Хорст Буххольц, Лідія Альфонсі, Джулліана Лоджодіче

Сюжет:
Під час II Світової війни в Італії в концтабір були відправлені євреї, батько і його маленький син. Дружина, італійка, добровільно пішла слідом за ними. У таборі батько сказав синові, що все, що відбувається навколо є дуже великою грою за приз у справжній танк, який дістанеться тому хлопчикові, який зможе не потрапити на очі наглядачам. Він зробив усе, щоб син повірив у гру і залишився живий, ховаючись в бараку.


Тривалість: 01:56:10
Якість: 720р
Відео:
кодек:
розмір кадру: 1280 х 692
бітрейт: 4754 кб/с

Аудіо # 1:
мова: українська
переклад: двоголосий закадровий
кодек: 5.1
бітрейт: 384 кб/с
доріжку взято з релізу Skiff

Аудіо # 2:
мова: італійська
переклад: оригінал
кодек: 5.1
бітрейт: 1510 кб/с
MediaInfo
D:\проекти\La Vita e bella (1997) 720p UkrIta .mkv
General
Complete name : D:\проекти\La Vita e bella (1997) 720p UkrIta .mkv
Format : Matroska
File size : 5.58 GiB
Duration : 1h 57mn
Overall bit rate : 6 783 Kbps
Movie name : Life Is Beautiful / La vita e bella (1997) - Release for HDCLUB
Encoded date : UTC 2013-02-25 11:22:18
Writing application : mkvmerge v5.2.1 ('A Far Off Place') built on Jan 2 2012 23:21:10
Writing library : libebml v1.2.3 + libmatroska v1.3.0
Video #1
ID : 1
Format : AVC
Format/Info : Advanced Video Codec
Format profile : [email protected]
Format settings, CABAC : Yes
Format settings, ReFrames : 7 frames
Muxing mode : Container [email protected]
Codec ID : V_MPEG4/ISO/AVC
Duration : 1h 57mn
Bit rate : 4 754 Kbps
Nominal bit rate : 4 996 Kbps
Width : 1 280 pixels
Height : 692 pixels
Display aspect ratio : 1.850
Frame rate : 23.976 fps
Color space : YUV
Chroma subsampling : 4:2:0
Bit depth : 8 bits
Scan type : Progressive
Bits/(Pixel*Frame) : 0.224
Stream size : 3.91 GiB (70%)
Title : Release for HDCLUB
Writing library : core 107 r1745 4785e8e
Encoding settings : cabac=1 / ref=7 / deblock=1:-3:-3 / analyse=0x3:0x133 / me=umh / subme=10 / psy=1 / psy_rd=1.00:0.00 / mixed_ref=1 / me_range=32 / chroma_me=1 / trellis=2 / 8x8dct=1 / cqm=0 / deadzone=21,11 / fast_pskip=0 / chroma_qp_offset=-2 / threads=12 / sliced_threads=0 / nr=0 / decimate=0 / interlaced=0 / constrained_intra=0 / bframes=10 / b_pyramid=2 / b_adapt=2 / b_bias=0 / direct=3 / weightb=1 / open_gop=0 / weightp=2 / keyint=250 / keyint_min=23 / scenecut=40 / intra_refresh=0 / rc_lookahead=60 / rc=2pass / mbtree=0 / bitrate=4996 / ratetol=1.0 / qcomp=0.60 / qpmin=10 / qpmax=51 / qpstep=4 / cplxblur=20.0 / qblur=0.5 / vbv_maxrate=50000 / vbv_bufsize=62500 / ip_ratio=1.40 / pb_ratio=1.30 / aq=1:0.65 / nal_hrd=none
Language : English
Audio #2
ID : 2
Format : AC-3
Format/Info : Audio Coding 3
Mode extension : CM (complete main)
Codec ID : A_AC3
Duration : 1h 57mn
Bit rate mode : Constant
Bit rate : 384 Kbps
Channel(s) : 6 channels
Channel positions : Front: L C R, Side: L R, LFE
Sampling rate : 48.0 KHz
Bit depth : 16 bits
Stream size : 324 MiB (6%)
Language : Ukrainian
Audio #3
ID : 3
Format :
Format/Info : Digital Theater Systems
Codec ID : A_DTS
Duration : 1h 57mn
Bit rate mode : Constant
Bit rate : 1 510 Kbps
Channel(s) : 6 channels
Channel positions : Front: L C R, Side: L R, LFE
Sampling rate : 48.0 KHz
Bit depth : 24 bits
Stream size : 1.24 GiB (22%)
Title : 5.1 @ 1536 kbps
Language : Italian
Скріншоти


Джерело: &
Особиста оцінка: 10 - без зайвих вагань рекомендую всім!


Срібний реліз (на рейтинг впливає 50% завантаженого)
 Трекер:    Зареєстрований   

Завантажити / скачати фільм українською



відео для новачків



 Зареєстрований:   2013-02-25 21:46
 Розмір:   5.58 GB 
 Оцінка фільму:   9.7/10 (Голосів: 20)
   
Інші релізи
   Життя прекрасне / La vita e'bella (1997) 2xUkr patriot2305  6 / 0   1.46 GB   2015-09-19 15:53 
marmelad12 
Новенький


З нами з: 13.02.12
Востаннє: 29.11.16
Повідомлень: 10

2013-02-26 00:16  
фильм просто супер. смотреть обязательно.
pyatachok 
Координатор літератури


З нами з: 30.01.10
Востаннє: 04.12.16
Повідомлень: 1337

2013-02-26 00:35  
marmelad12
Вам вже кілька разів модератори звертали увагу на те, що в нас спілкуються українською.
Невже так важко запам’ятати?

Deluxeman 
Localize Team
Localize Team


З нами з: 31.10.09
Востаннє: 03.12.16
Повідомлень: 1604

2014-03-23 16:08  
Постер

Код:
http://toloka.to/photos/14032316060346226_f0_0.jpg


Deiv 
Частий відвідувач


З нами з: 15.07.16
Востаннє: 04.12.16
Повідомлень: 28

2016-09-01 00:08  
Якщо у фільмах грають - Мастроянні,Челентано чи Беніньї, то неодмінно треба дивитись!!!
Ваш часовий пояс: GMT + 2 Години

Нова тема   Відповісти