Завантажити та скачати торренти українською


VA - Пісні про кохання [Золота колекція] (2004) [FLAC] | Pop

Нові коментарі

Нова тема   Відповісти
Автор Повідомлення
civ 
VIP


З нами з: 16.02.11
Востаннє: 08.12.16
Повідомлень: 429

2013-02-25 19:14  
VA - Пісні про кохання [Золота колекція] (2004) [FLAC] | Pop

Стиль: Pop
Країна, місто: Україна
Видавець: Астра Рекордс

Пісні:
    01. Лідія Відаш - Як я люблю тебе
    02. Василь Зінкевич, Назарій Яремчук, ВІА «Смерічка» - Червона рута
    03. Людмила Невзгляд-Маконько - Коханий
    04. Софія Ротару - Лиш раз цвіте любов
    05. Тріо Маренич - Тиша навкруги
    06. ВІА «Кобза» - Кохати час
    07. Ольга Богомолець - Очима ти сказав мені — люблю
    08. Тарас Петриненко, ВІА «Візерунки шляхів» - Весна і ти
    09. ВІА «Чайка» - Чарівна скрипка
    10. Лідія Відаш - Відлуння твоїх кроків
    11. Володимир Удовиченко - Диво-сон
    12. Наталя Пойченко - Не питай
    13. ВІА «Калина» - А ми удвох
    14. Наталя Костенко - Покохала вітра з поля
    15. Тетяна Русова - Червоні маки
    16. Софія Ротару - Минає день
    17. ВІА «Кобза» - Запитай у серця
    18. Тетяна Русова - Червона троянда
    19. Василь Зінкевич, ВІА «Смерічка» - Залишені квіти
    20. Лідія Відаш - Сліпий дощ
    21. Лідія Відаш - Пісня любові

Тривалість: 01:12:31
Мова: українська
Аудіо-кодек: FLAC
Бітрейт: 734 кб/с
Джерело: власний ріп
Тип ріпу: image + cue + covers
EAC Log

Exact Audio Copy V1.0 beta 3 from 29. August 2011

EAC extraction logfile from 25. February 2013, 17:58

Various / Пісні про кохання [Золота колекція]

Used drive : MATSHITADVD-RAM UJ8C1 Adapter: 1 ID: 0

Read mode : Secure
Utilize accurate stream : Yes
Defeat audio cache : Yes
Make use of C2 pointers : No

Read offset correction : 6
Overread into Lead-In and Lead-Out : No
Fill up missing offset samples with silence : Yes
Delete leading and trailing silent blocks : No
Null samples used in CRC calculations : Yes
Used interface : Native Win32 interface for Win NT & 2000

Used output format : Internal WAV Routines
Sample format : 44.100 Hz; 16 Bit; Stereo

TOC of the extracted CD

Track | Start | Length | Start sector | End sector
---------------------------------------------------------
1 | 0:00.00 | 5:25.67 | 0 | 24441
2 | 5:25.67 | 3:08.24 | 24442 | 38565
3 | 8:34.16 | 3:47.57 | 38566 | 55647
4 | 12:21.73 | 3:07.54 | 55648 | 69726
5 | 15:29.52 | 3:14.00 | 69727 | 84276
6 | 18:43.52 | 3:07.37 | 84277 | 98338
7 | 21:51.14 | 2:21.30 | 98339 | 108943
8 | 24:12.44 | 5:07.01 | 108944 | 131969
9 | 29:19.45 | 3:20.22 | 131970 | 146991
10 | 32:39.67 | 3:07.01 | 146992 | 161017
11 | 35:46.68 | 3:11.68 | 161018 | 175410
12 | 38:58.61 | 3:37.15 | 175411 | 191700
13 | 42:36.01 | 2:47.45 | 191701 | 204270
14 | 45:23.46 | 2:22.11 | 204271 | 214931
15 | 47:45.57 | 3:54.15 | 214932 | 232496
16 | 51:39.72 | 4:17.30 | 232497 | 251801
17 | 55:57.27 | 3:07.49 | 251802 | 265875
18 | 59:05.01 | 3:34.57 | 265876 | 281982
19 | 62:39.58 | 3:48.16 | 281983 | 299098
20 | 66:27.74 | 3:03.27 | 299099 | 312850
21 | 69:31.26 | 2:59.24 | 312851 | 326299

Range status and errors

Selected range

Filename C:\Music\Various - Пісні про кохання [Золота колекція] (2004)\Various - Пісні про кохання [Золота колекція].wav

Peak level 94.4 %
Extraction speed 5.0 X
Range quality 100.0 %
Copy CRC 868394DA
Copy OK

No errors occurred

End of status report
Audiochecker

fooCDtect - foobar2000 + auCDtect, baralgin.

auCDtect: CD records authenticity detector, version 0.8.2
Copyright (c) 2004 Oleg Berngardt. All rights reserved.
Copyright (c) 2004 Alexander Djourik. All rights reserved.

mode: 0

===========================================
Track: 01. Як я люблю тебе
Quality: CDDA 100%
===========================================
Track: 02. Червона рута
Quality: CDDA 87%
===========================================
Track: 03. Коханий
Quality: CDDA 100%
===========================================
Track: 04. Лиш раз цвіте любов
Quality: CDDA 87%
===========================================
Track: 05. Тиша навкруги
Quality: CDDA 100%
===========================================
Track: 06. Кохати час
Quality: CDDA 100%
===========================================
Track: 07. Очима ти сказав мені — люблю
Quality: CDDA 100%
===========================================
Track: 08. Весна і ти
Quality: CDDA 100%
===========================================
Track: 09. Чарівна скрипка
Quality: CDDA 100%
===========================================
Track: 10. Відлуння кроків
Quality: CDDA 99%
===========================================
Track: 11. Диво-сон
Quality: CDDA 100%
===========================================
Track: 12. Не питай
Quality: CDDA 100%
===========================================
Track: 13. А ми удвох
Quality: CDDA 99%
===========================================
Track: 14. Покохала вітра з поля
Quality: CDDA 100%
===========================================
Track: 15. Червоні маки
Quality: CDDA 100%
===========================================
Track: 16. Минає день
Quality: CDDA 100%
===========================================
Track: 17. Запитай у серця
Quality: CDDA 99%
===========================================
Track: 18. Червона троянда
Quality: CDDA 99%
===========================================
Track: 19. Залишені квіти
Quality: CDDA 100%
===========================================
Track: 20. Сліпий дощ
Quality: CDDA 100%
===========================================
Track: 21. Пісня любові
Quality: CDDA 100%
===========================================
Додаткова інформація:
Не так вже й багато, погодьтеся, знайдеться одвічно актуальних тем. Смерть, кохання, сенс життя – втім, все це одне й те саме. Все – кохання. Що ж до цього диску, то тут наша розмова може йти про кохання у пастельних тонах. Вірніше, мова про мову про кохання. Бо все це – пісні років 60-х – 80-х, і тому одразу легко уявити, якою мовою йде розповідь, якою музикою все це супроводжується. Естрадна атмосфера тих років не те щоб криштально-прозора, але м’яка, не напружена. У неї приємно зануритись, погойдатися на цій хвилі, спробувати на смак цю солодку сіль. Навіть якщо пісням цим більше років, ніж тому, хто зараз їх слухає. І легко уявити вимиту теплим дощем зелень парків, літні естради, з яких звучать ці пісні, людей із замріяними обличчями, пари, що кружляють у танці. Тож нехай цей диск принесе Вам настрій легкий, без тривоги та суму. Нехай принесе він натхнення сказати коханій людині про те, що вона – кохана.

Умка

Від себе:
Чудова збірка. Це - один із перших дисків Астри Рекордс, яка започаткувала цю прекрасну серію - Золота колекція.




Якщо Ви справді бажаєте підтримати українське - після прослуховування, якщо музика вам сподобалась, придбайте ліцензійний диск. Підтримаймо вітчизняних виконавців!


Срібний реліз (на рейтинг впливає 50% завантаженого)
 Трекер:    Зареєстрований   

Завантажити / скачати українську музику



відео для новачків



 Зареєстрований:   2013-02-25 19:14
 Розмір:   397 MB 
 Оцінка музики:   10/10 (Голосів: 10)
   
Ваш часовий пояс: GMT + 2 Години

Нова тема   Відповісти