Завантажити та скачати торренти українською


Іван Попович - Рідні гори (2004) [FLAC] | Pop

Нові коментарі

Нова тема   Відповісти
Автор Повідомлення
civ 
VIP


З нами з: 16.02.11
Востаннє: 08.12.16
Повідомлень: 429

2013-02-25 18:44  
Іван Попович - Рідні гори (2004) [FLAC] | Pop

Іван Попович - Рідні гори (2004) [FLAC] | Pop


Стиль: Pop
Країна, місто: Україна, Закарпатська область, с. Осій
Видавець: Franchising Records
Виконавці:
Попович Іван Дмитрович

Пісні:
    01. Рідні гори
    02. Василина
    03. Скажи мені
    04. Гірська пісня
    05. Дівчина-вивірка
    06. Моя мила задрімала
    07. Я сой циган
    08. Гей, на високій полонині
    09. Вівці мої, вівці
    10. Розступіться, гори
    11. Ти не забудь
    12. Яворія
    13. Ватри на снігу
    14. Весілля в Карпатах
    15. Кед ми прийшла картка
    16. Ой, ішов я попід гай
    17. Пісня фурмана
    18. Як ішов я з Дебречина
    19. Закарпаття моє
    20. Я спасибі долі скажу
    21. Мила моя

Тривалість: 01:07:31
Мова: українська
Аудіо-кодек: FLAC
Бітрейт: 827 кб/с
Джерело: власний ріп
Тип ріпу: image + cue + covers
EAC Log

Exact Audio Copy V1.0 beta 2 from 29. April 2011

EAC extraction logfile from 25. February 2013, 8:49

Іван Попович / Рідні гори

Used drive : Optiarc DVD RW AD-7200A Adapter: 0 ID: 0

Read mode : Secure
Utilize accurate stream : Yes
Defeat audio cache : Yes
Make use of C2 pointers : No

Read offset correction : 48
Overread into Lead-In and Lead-Out : No
Fill up missing offset samples with silence : Yes
Delete leading and trailing silent blocks : No
Null samples used in CRC calculations : Yes
Used interface : Native Win32 interface for Win NT & 2000

Used output format : Internal WAV Routines
Sample format : 44.100 Hz; 16 Bit; Stereo

TOC of the extracted CD

Track | Start | Length | Start sector | End sector
---------------------------------------------------------
1 | 0:00.00 | 3:09.56 | 0 | 14230
2 | 3:09.56 | 2:32.36 | 14231 | 25666
3 | 5:42.17 | 4:14.63 | 25667 | 44779
4 | 9:57.05 | 3:40.17 | 44780 | 61296
5 | 13:37.22 | 3:13.43 | 61297 | 75814
6 | 16:50.65 | 1:51.13 | 75815 | 84152
7 | 18:42.03 | 2:34.14 | 84153 | 95716
8 | 21:16.17 | 2:48.51 | 95717 | 108367
9 | 24:04.68 | 4:06.74 | 108368 | 126891
10 | 28:11.67 | 3:12.48 | 126892 | 141339
11 | 31:24.40 | 3:06.41 | 141340 | 155330
12 | 34:31.06 | 2:12.22 | 155331 | 165252
13 | 36:43.28 | 2:57.02 | 165253 | 178529
14 | 39:40.30 | 4:24.38 | 178530 | 198367
15 | 44:04.68 | 3:09.45 | 198368 | 212587
16 | 47:14.38 | 4:18.70 | 212588 | 232007
17 | 51:33.33 | 4:09.27 | 232008 | 250709
18 | 55:42.60 | 2:01.70 | 250710 | 259854
19 | 57:44.55 | 2:58.05 | 259855 | 273209
20 | 60:42.60 | 3:56.21 | 273210 | 290930
21 | 64:39.06 | 2:52.25 | 290931 | 303855

Range status and errors

Selected range

Filename D:\Music\Іван Попович - Рідні гори (2001)\Іван Попович - Рідні гори.wav

Peak level 100.0 %
Extraction speed 4.3 X
Range quality 99.9 %
Copy CRC 52B024FC
Copy OK

No errors occurred

End of status report
Audiochecker

fooCDtect - foobar2000 + auCDtect, baralgin.

auCDtect: CD records authenticity detector, version 0.8.2
Copyright (c) 2004 Oleg Berngardt. All rights reserved.
Copyright (c) 2004 Alexander Djourik. All rights reserved.

mode: 0

=======================================================
Track: 01 - Рідні гори
Quality: CDDA, 100%
=======================================================
Track: 02 - Василина
Quality: CDDA, 100%
=======================================================
Track: 03 - Скажи мені
Quality: CDDA, 100%
=======================================================
Track: 04 - Гірська пісня
Quality: CDDA, 100%
=======================================================
Track: 05 - Дівчина-вивірка
Quality: CDDA, 100%
=======================================================
Track: 06 - Моя мила задрімала
Quality: CDDA, 99%
=======================================================
Track: 07 - Я сой циган
Quality: CDDA, 94%
=======================================================
Track: 08 - Гей, на високій полонині
Quality: CDDA, 100%
=======================================================
Track: 09 - Вівці мої, вівці
Quality: CDDA, 100%
=======================================================
Track: 10 - Розступіться, гори
Quality: CDDA, 100%
=======================================================
Track: 11 - Ти не забудь
Quality: CDDA, 87%
=======================================================
Track: 12 - Яворія
Quality: CDDA, 100%
=======================================================
Track: 13 - Ватри на снігу
Quality: CDDA, 100%
=======================================================
Track: 14 - Весілля в Карпатах
Quality: CDDA, 100%
=======================================================
Track: 15 - Кед ми прийшла картка
Quality: CDDA, 99%
=======================================================
Track: 16 - Ой, ішов я попід гай
Quality: CDDA, 100%
=======================================================
Track: 17 - Пісня фурмана
Quality: CDDA, 94%
=======================================================
Track: 18 - Як ішов я з Дебречина
Quality: CDDA, 100%
=======================================================
Track: 19 - Закарпаття моє
Quality: CDDA, 100%
=======================================================
Track: 20 - Я спасибі долі скажу
Quality: CDDA, 100%
=======================================================
Track: 21 - Мила моя
Quality: CDDA, 99%
=======================================================
Я б, мабуть, назвав його голос жвавим. Так, тут можливі і інші епітети, і багато, але саме ця жвавість здається мені дуже важливою. Бо, завдяки їй, весь диск слухається на єдиному диханні, як щось цілісне, святкове, радісне. І це навіть при тому, що частині з цих пісень – вже із двадцять років. Та є і в них, і в самій манері Івана Поповича щось настільки безхмарне, відкрите, променисте – якоїсь миті навіть здається, що вдихаєш свіже повітря. Тут, мабуть, треба зазначити, що я зараз перебуваю у кімнаті, у місті, у розпалі передвечірньої спеки. Дощу не вистачає. А цей спів, його настрій, бадьорий заряд просто висмикують мене потихеньку зі спеки у прохолоду відпочинку. І здається мені, що всю цю свіжість та піднесення по достоїнству оцінить слухач із будь-якими музичними уподобаннями. Просто тому, що це – радісний спів. Можливо, із легким відтінком ностальгії.

Умка




Якщо Ви справді бажаєте підтримати українське - після прослуховування, якщо музика вам сподобалась, придбайте ліцензійний диск. Підтримаймо вітчизняних виконавців!


Срібний реліз (на рейтинг впливає 50% завантаженого)
 Трекер:    Зареєстрований   

Завантажити / скачати українську музику



відео для новачків



 Зареєстрований:   2013-02-25 18:44
 Розмір:   415 MB 
 Оцінка музики:   9.9/10 (Голосів: 16)
   
Вуйко з полонини 
Новенький


З нами з: 05.11.14
Востаннє: 14.11.14
Повідомлень: 3

2014-11-05 19:46  
Станьте,будь ласка, на роздачу!
Леді22 
Забанено
Забанено


З нами з: 05.04.14
Востаннє: 15.03.15
Повідомлень: 234

2014-11-06 14:37  

Вуйко з полонини 
Новенький


З нами з: 05.11.14
Востаннє: 14.11.14
Повідомлень: 3

2014-11-06 23:52  
Дуже дякую! Файний клiп.
mr.killer 
Свій


З нами з: 11.08.10
Востаннє: 08.12.16
Повідомлень: 146

2015-02-13 20:53  
Не можу скачати, допоможіть будь ласка
Ваш часовий пояс: GMT + 2 Години

Нова тема   Відповісти