Завантажити та скачати торренти українською


Хмарний атлас / Cloud Atlas (2012) AVC Ukr/Eng | sub Eng

Нові коментарі

Нова тема   Відповісти
Автор Повідомлення
DеLight 
Відео Гуртом - фільмокрай
Відео Гуртом - фільмокрай


З нами з: 24.08.11
Востаннє: 17.11.16
Повідомлень: 664

2013-02-24 12:26  
Хмарний атлас / Cloud Atlas (2012) AVC Ukr/Eng | sub Eng

Хмарний атлас / Cloud Atlas (2012) AVC Ukr/Eng | sub Eng

«Все між собою пов’язано»


Український постер




Жанр: драма, містика, фантастика
Країна: США, Німеччина, Гонконг, Сінгапур



рейтинг MPAA: - дітям до 17 років обов'язкова присутність батьків або дорослого опікуна


Кіностудія / кінокомпанія: A Company Filmproduktionsgesellschaft, Anarchos Pictures, ARD Degeto Film GmbH, Ascension Pictures, Cloud Atlas Productions, Five Drops, Media Asia Group Ltd., X-Filme Creative Pool
Режисер: Том Тиквер / Tom Tykwer, Енді Вачовскі / Andy Wachowski, Лана Вачовскі / Lana Wachowski
Актори: Том Генкс / Tom Hanks, Г'юґо Вівінґ / Hugo Weaving, Сьюзен Сарандон / Susan Sarandon, Джим Стерджесс / Jim Sturgess, Холлі Беррі / Halle Berry, Кіт Девід / Keith David, Г'ю Ґрант / Hugh Grant, Бен Уішоу / Ben Whishaw, Джим Броудбент / Jim Broadbent, Джеймс Д'Арсі / James D'Arcy та інші

Сюжет:
Фільм "Хмарний атлас" - це складна і заплутана картина, створена за мотивами однойменного роману Девіда Мітчела, сюжетна лінія якої складається з шести різних історій, які відбуваються в різний час - від минулого (середини 19-го століття) до майбутнього ( дві останні історії, герой яких знаходиться вже в постапокаліптичному режимі). Зв'язок між ними усіма - це головна дійова особа (у виконанні Тома Хенкса). Це різні люди, але одна і та ж душа реінкарнована шість разів, і волею долі кожне нове життя якимось чином пов'язана з попереднім ...


Тривалість: 02:52:07
Якість: AVC

Відео:
кодек:
розмір кадру: 1032 x 440
бітрейт: 1 977 кб/с

Аудіо #1:
мова: українська
переклад: професійний дубльований | LeDoyen Studio
кодек: 5.1
бітрейт: 448 кб/с

Джерело озвучення:


Аудіо #2:
мова: англійська
переклад: оригінал
кодек: 5.1
бітрейт: 448 кб/с

Субтитри:
мова: англійська
тип: програмні (м'які)
формат: *.srt

Збережені оригінальні розділи як на Blu-ray


Український трейлер


MediaInfo

Код:
General
Unique ID                      : 253154000367438702148300564777805542668 (0xBE73AFDE3E2B56B68EE7633DFBA7F50C)
Complete name                  : D:\Torrents\Cloud Atlas (2012) AVC [Ukr, Eng] [Hurtom].mkv
Format                         : Matroska
Format version                 : Version 4 / Version 2
File size                      : 3.45 GiB
Duration                       : 2h 52mn
Overall bit rate               : 2 867 Kbps
Movie name                     : Cloud Atlas (2012) AVC [Ukr, Eng] [Hurtom] by Delight
Encoded date                   : UTC 2013-02-24 09:46:54
Writing application            : mkvmerge v6.0.0 ('Coming Up For Air') built on Jan 20 2013 09:52:00
Writing library                : libebml v1.3.0 + libmatroska v1.4.0

Video
ID                             : 1
Format                         : AVC
Format/Info                    : Advanced Video Codec
Format profile                 : [email protected]
Format settings, CABAC         : Yes
Format settings, ReFrames      : 9 frames
Codec ID                       : V_MPEG4/ISO/AVC
Duration                       : 2h 52mn
Bit rate                       : 1 977 Kbps
Width                          : 1 032 pixels
Height                         : 440 pixels
Display aspect ratio           : 2.35:1
Original display aspect ratio  : 2.35:1
Frame rate mode                : Constant
Frame rate                     : 23.976 fps
Color space                    : YUV
Chroma subsampling             : 4:2:0
Bit depth                      : 8 bits
Scan type                      : Progressive
Bits/(Pixel*Frame)             : 0.182
Stream size                    : 2.30 GiB (67%)
Title                          : Cloud Atlas (2012) AVC [potroks]
Writing library                : core 128 r2216M 198a7ea
Encoding settings              : cabac=1 / ref=10 / deblock=1:-2:-1 / analyse=0x3:0x133 / me=umh / subme=11 / psy=1 / psy_rd=1.03:0.00 / mixed_ref=1 / me_range=48 / chroma_me=1 / trellis=2 / 8x8dct=1 / cqm=0 / deadzone=21,11 / fast_pskip=0 / chroma_qp_offset=-2 / threads=4 / lookahead_threads=1 / sliced_threads=0 / nr=0 / decimate=1 / interlaced=0 / bluray_compat=0 / constrained_intra=0 / bframes=11 / b_pyramid=1 / b_adapt=2 / b_bias=0 / direct=3 / weightb=1 / open_gop=0 / weightp=2 / keyint=240 / keyint_min=23 / scenecut=40 / intra_refresh=0 / rc_lookahead=200 / rc=2pass / mbtree=1 / bitrate=1977 / ratetol=1.0 / qcomp=0.70 / qpmin=0 / qpmax=69 / qpstep=4 / cplxblur=20.0 / qblur=0.5 / vbv_maxrate=20000 / vbv_bufsize=20000 / nal_hrd=none / ip_ratio=1.35 / aq=1:0.90
Language                       : English
Default                        : Yes
Forced                         : No

Audio #1
ID                             : 2
Format                         : AC-3
Format/Info                    : Audio Coding 3
Mode extension                 : CM (complete main)
Format settings, Endianness    : Big
Codec ID                       : A_AC3
Duration                       : 2h 52mn
Bit rate mode                  : Constant
Bit rate                       : 448 Kbps
Channel(s)                     : 6 channels
Channel positions              : Front: L C R, Side: L R, LFE
Sampling rate                  : 48.0 KHz
Bit depth                      : 16 bits
Compression mode               : Lossy
Stream size                    : 552 MiB (16%)
Title                          : 5.1; 448 kbps; професійний дубльований {LeDoyen Studio}
Language                       : Ukrainian
Default                        : Yes
Forced                         : No

Audio #2
ID                             : 3
Format                         : AC-3
Format/Info                    : Audio Coding 3
Mode extension                 : CM (complete main)
Format settings, Endianness    : Big
Codec ID                       : A_AC3
Duration                       : 2h 52mn
Bit rate mode                  : Constant
Bit rate                       : 448 Kbps
Channel(s)                     : 6 channels
Channel positions              : Front: L C R, Side: L R, LFE
Sampling rate                  : 48.0 KHz
Bit depth                      : 16 bits
Compression mode               : Lossy
Stream size                    : 552 MiB (16%)
Title                          : 5.1; 448 kbps; original
Language                       : English
Default                        : No
Forced                         : No

Text
ID                             : 4
Format                         : UTF-8
Codec ID                       : S_TEXT/UTF8
Codec ID/Info                  : UTF-8 Plain Text
Title                          : full
Language                       : English
Default                        : No
Forced                         : No

Menu
00:00:00.000                   : en:1
00:05:23.698                   : en:2
00:14:48.554                   : en:3
00:24:37.559                   : en:4
00:31:45.361                   : en:5
00:38:48.284                   : en:6
00:46:39.087                   : en:7
00:54:30.684                   : en:8
00:59:25.937                   : en:9
01:06:08.381                   : en:10
01:12:34.266                   : en:11
01:20:25.153                   : en:12
01:26:51.456                   : en:13
01:33:15.006                   : en:14
01:39:44.645                   : en:15
01:45:39.374                   : en:16
01:53:32.388                   : en:17
02:00:03.070                   : en:18
02:09:22.921                   : en:19
02:16:09.870                   : en:20
02:22:03.431                   : en:21
02:29:16.656                   : en:22
02:37:02.246                   : en:23
02:42:50.218                   : en:24

Світлини















Джерело: &
Особиста оцінка: 7,5


 Трекер:    Зареєстрований   

Завантажити / скачати фільм українською



відео для новачків



 Зареєстрований:   2013-02-24 12:26
 Розмір:   3.45 GB 
 Оцінка фільму:   9.1/10 (Голосів: 54)
   
Інші релізи
   Хмарний атлас / Cloud Atlas (2012) 1080p Ukr/Eng | sub Eng pintg  3 / 1   15.56 GB   2016-08-11 08:43 
   Хмарний атлас / Cloud Atlas (2012) [Open Matte] Ukr/Eng AngryBirdsUA  8 / 0   2.91 GB   2015-02-18 14:42 
   Хмарний атлас / Cloud Atlas (2012) patriot2305  8 / 0   2.18 GB   2014-01-08 15:09 
   Хмарний атлас / Cloud Atlas (2012) | [480х200] AngryBirdsUA  0 / 0   757 MB   2013-02-27 20:27 
   Хмарний атлас / Cloud Atlas (2012) DVD9 Ukr/Rus | Ліцензія vamp69  0 / 0   7.41 GB   2013-02-25 18:13 
   Хмарний атлас / Cloud Atlas (2012) 720p Ukr/Eng | sub Eng 11FrYkT  5 / 0   8.26 GB   2013-02-24 16:09 
Seriy100293 
VIP


З нами з: 17.08.11
Востаннє: 04.09.16
Повідомлень: 307

2013-02-24 13:05  
А відеоряд не російський?
DеLight 
Відео Гуртом - фільмокрай
Відео Гуртом - фільмокрай


З нами з: 24.08.11
Востаннє: 17.11.16
Повідомлень: 664

2013-02-24 13:08  
Seriy100293 написано:
А відеоряд не російський?

Я вже писав про вихід закордонних BD в попередній темі, почитайте.

omm 
Відео Гуртом - фільмокрай
Відео Гуртом - фільмокрай


З нами з: 12.06.12
Востаннє: 07.12.16
Повідомлень: 2066

2013-02-24 13:32  
Ура, я вірив у це. Моя мрія збулася, дякую
DеLight 
Відео Гуртом - фільмокрай
Відео Гуртом - фільмокрай


З нами з: 24.08.11
Востаннє: 17.11.16
Повідомлень: 664

2013-02-24 13:47  
omm написано:
Буде звичайний варіант .аві на 2,18 або 2,91 Гб?

*.avi вже є, користуйтеся пошуком або спойлер "інші релізи".

clint 
Поважний учасник


З нами з: 30.03.09
Востаннє: 07.12.16
Повідомлень: 200

2013-02-24 14:38  
очікую на 720р
igor911 
Відео Гуртом
Відео Гуртом


З нами з: 18.01.08
Востаннє: 07.12.16
Повідомлень: 5164

2013-02-24 14:51  
Можу зробити 1080p-міні (десь близько 8 Гб, ref=5, me=umh, subme=10, 6006 Кб/с бітрейт)
8530 
VIP


З нами з: 27.01.09
Востаннє: 23.11.16
Повідомлень: 494

2013-02-24 14:53  
Сюжет цікавий, будем дивитися..
The_Marlboro 
Відео Гуртом - субтитрування
Відео Гуртом - субтитрування


З нами з: 23.05.10
Востаннє: 06.12.16
Повідомлень: 2854

2013-02-24 14:55  
igor911 написано:
Можу зробити 1080p-міні (десь близько 8 Гб, ref=5, me=umh, subme=10, 6006 Кб/с бітрейт)

до біса, 1080-міні - це збочення

ratbol 
Модератор HD


З нами з: 03.02.09
Востаннє: 07.12.16
Повідомлень: 1088

2013-02-24 16:46  
igor911
1080р-mini заборонені, а саме 1080p, де Bits/(Pixel*Frame) менше, ніж 0.18, для анімації - 0.14.

hellforces 
VIP


З нами з: 25.06.08
Востаннє: 11.11.16
Повідомлень: 1556

2013-02-25 18:21  
я кіно не зрозумів тому мені не сподобалося, але було кілька прикольних моментів 6\10
SHEVA1991 
Поважний учасник


З нами з: 29.11.12
Востаннє: 03.12.16
Повідомлень: 200

2013-02-26 21:52  
Дуже дякую!!! Дочекався чистого дубляжу у форматі 5.1
osozo 
Новенький


З нами з: 11.08.10
Востаннє: 04.12.16
Повідомлень: 16

2013-04-18 00:50  
Наслухався-начитався про цей фільм, тому, мабуть, чекав більшого. Моя оцінка: 7/10.
Дякую за реліз.

ProgBassing 
Відео Гуртом - фільмокрай
Відео Гуртом - фільмокрай


З нами з: 08.03.08
Востаннє: 07.12.16
Повідомлень: 607

2013-05-08 14:03  
м'ять, москальський ріп... :/
Віктор 
Відео Гуртом - субтитрування
Відео Гуртом - субтитрування


З нами з: 09.01.10
Востаннє: 07.12.16
Повідомлень: 8663

2013-06-12 00:04  
Буде замінений відео ряд, чи ні?
pintg 
Свій


З нами з: 14.04.16
Востаннє: 07.12.16
Повідомлень: 60

2016-08-10 18:08  
Віктор написано:
Буде замінений відео ряд, чи ні?

Тут оригінальне відео.
Припускаю, що якості може вистачити щоб з цього можна було зробити Rip (можу і помилятись, ніколи не робив).

Ваш часовий пояс: GMT + 2 Години

Нова тема   Відповісти