Завантажити та скачати торренти українською


Юрій Гуляєв - Дивлюсь я на небо (1996) [APE] | Pop Folk

Нові коментарі

Нова тема   Відповісти
Останній раз роздавалося Myfordownloads (2016-10-09)
Автор Повідомлення
tol2013 
Свій


З нами з: 14.01.13
Востаннє: 14.02.15
Повідомлень: 64

2013-02-23 18:53  
Юрій Гуляєв - Дивлюсь я на небо (1996) [APE] | Pop Folk

Юрій Гуляєв - Дивлюсь я на небо (1996) [APE] | Pop Folk


Стиль: Pop Folk
Країна, місто: Росія, Тюмень
Сайти: Офіційний сайт
Видавець: Фонд російської класики ім.Юрія Гуляєва "Бажаю вам"
Виконавці:
Юрій Гуляєв

Пісні:

    01. От села до села
    02. Iхав козак за Дунай
    03. Iхав козак на вiйноньку
    04. Не женися на богатiй
    05. Дивлюсь я на небо
    06. Гуде вiтер
    07. Безмежное поле
    08. Три поради
    09. Камiнь сонця
    10. А скiльки мрiй було...
    11. Два кольори
    12. Ображайся на мене
    13. Надднiпрянськi вечори
    14. Коли кружляли сніжинки
    15. Приворожила
    16. Киеве мiй
log:

Exact Audio Copy V0.99 prebeta 4 from 23. January 2008

Отчёт EAC об извлечении, выполненном 14. декабря 2008, 10:06

Юрий Гуляев / Дивлюсь я на небо

Дисковод: TEAC CD-W58E Adapter: 0 ID: 1

Режим чтения : Достоверность
Использование точного потока : Да
Отключение кэша аудио : Да
Использование указателей C2 : Нет

Коррекция смещения при чтении : 685
Способность читать области Lead-in и Lead-out : Нет
Заполнение пропущенных сэмплов тишиной : Да
Удаление блоков с тишиной в начале и конце : Нет
При вычислениях CRC использовались нулевые сэмплы : Да
Интерфейс : Встроенный Win32-интерфейс для Win NT/2000

Выходной формат : Внутренние WAV-операции
Формат сэмплов : 44.100 Гц; 16 бит; стерео

TOC извлечённого CD

Трек | Старт | Длительность | Начальный сектор | Конечный сектор
---------------------------------------------------------------------
1 | 0:00.02 | 1:34.05 | 2 | 7056
2 | 1:34.07 | 2:01.35 | 7057 | 16166
3 | 3:35.42 | 2:14.70 | 16167 | 26286
4 | 5:50.37 | 2:15.58 | 26287 | 36469
5 | 8:06.20 | 2:28.12 | 36470 | 47581
6 | 10:34.32 | 2:44.63 | 47582 | 59944
7 | 13:19.20 | 0:58.22 | 59945 | 64316
8 | 14:17.42 | 4:09.35 | 64317 | 83026
9 | 18:27.02 | 4:02.33 | 83027 | 101209
10 | 22:29.35 | 3:06.10 | 101210 | 115169
11 | 25:35.45 | 3:55.00 | 115170 | 132794
12 | 29:30.45 | 3:27.05 | 132795 | 148324
13 | 32:57.50 | 2:18.32 | 148325 | 158706
14 | 35:16.07 | 4:05.20 | 158707 | 177101
15 | 39:21.27 | 3:49.10 | 177102 | 194286
16 | 43:10.37 | 4:11.65 | 194287 | 213176

Характеристики диапазона извлечения и сообщения об ошибках

Выбранный диапазон

Имя файла H:\Audio\Юрий Гуляев - Дивлюсь я на небо\Юрий Гуляев - Дивлюсь я на небо.wav

Пиковый уровень 79.4 %
Качество диапазона 100.0 %
CRC копии 2AFE76BA
Копирование... OK

Ошибок не произошло

Конец отчёта
Тривалість: 00:47:22
Мова: українська
Аудіо-кодек: APE
Бітрейт: 594 кб/с
Джерело: інше


Срібний реліз (на рейтинг впливає 50% завантаженого)
 Трекер:    Зареєстрований   

Завантажити / скачати українську музику



відео для новачків



 Зареєстрований:   2013-02-23 18:53
 Розмір:   204 MB 
 Оцінка музики:   10/10 (Голосів: 5)
   
ssTAss 
Модератор музики


З нами з: 05.07.08
Востаннє: 11.12.16
Повідомлень: 10958

2013-02-23 20:58  
логу в "джерелі" не було?
викладіть звіт аудіочекера, будь ласка

gorislavets 
VIP


З нами з: 29.03.11
Востаннє: 28.11.16
Повідомлень: 372

2013-02-24 01:48  
Гуляєв лише народився і починав працювати в Тюмені. Більшу частину свого творчого життя (20 років) він провів в Україні - Донецьку (1955-60) і Києві (1960-75). Тому, думаю, варто змінити інформацію у "Країна, місто".
ssTAss 
Модератор музики


З нами з: 05.07.08
Востаннє: 11.12.16
Повідомлень: 10958

2013-02-24 02:10  
gorislavets написано:
Гуляєв лише народився і починав працювати в Тюмені.

gorislavets написано:
Тому, думаю, варто змінити інформацію у "Країна, місто".

власне у цьому рядку пишемо звідки виконавець родом, а не де диск записаний
звісно, можна додатково написати і про Донецьк чи Київ, але основна інфа все ж таки це Тюмень

gorislavets 
VIP


З нами з: 29.03.11
Востаннє: 28.11.16
Повідомлень: 372

2013-02-24 02:23  
Це дурниці, бо значна кількість виконавців жили у рідному місті/селі тільки в дитинстві, а творче життя пройшло в іншому місці. Я завжди вказую у своїх релізах саме другий варіант, і майже всі люди так роблять.
Ваш часовий пояс: GMT + 2 Години

Нова тема   Відповісти