Завантажити та скачати торренти українською


На колесах / Wo ist Fred? (2006) 720р Ukr/Ger

Нові коментарі

Нова тема   Відповісти
Автор Повідомлення
ValTriK 
Поважний учасник


З нами з: 18.12.11
Востаннє: 16.11.16
Повідомлень: 238

2013-02-23 17:52  
На колесах / Wo ist Fred? (2006) 720р Ukr/Ger

На колесах / Wo ist Fred? (2006) 720р Ukr/Ger


Жанр: комедія, мелодрама, спорт
Країна: Німеччина



Кіностудія / кінокомпанія: Bioskop Film
Режисер: Анно Сауль
Актори: Тіль Швайгер, Юрген Фогель, Александра Марія Лара, Аня Клінг, Крістоф Маріа Ербст, Паскуале Алеарді, Таня Венцель, Ванесса Петруо, Мартін Брамбах

Сюжет:
Що треба зробити для того, щоб отримати баскетбольний м'яч з автографами улюбленої команди для сина своєї нареченої? Фред обрав досить неординарний спосіб - прикинувся інвалідом ...


Тривалість: 01:51:40
Якість:
Відео:
кодек:
розмір кадру: 1280 х 696
бітрейт: 4590 кб/с

Аудіо # 1:
мова: українська
переклад: багатоголосий закадровий
кодек: 2.0
бітрейт: 192 кб/с

Аудіо # 2:
мова: німецька
переклад: оригінал
кодек: 5.1
бітрейт: 448 кб/с

Джерело озвучення:
MediaInfo
E:\рЕЛІЗ\На колесах\Wo ist Fred (2006) 720p.mkv
General
Complete name : E:\рЕЛІЗ\На колесах\Wo ist Fred (2006) 720p.mkv
Format : Matroska
File size : 4.17 GiB
Duration : 1h 51mn
Overall bit rate : 5 342 Kbps
Movie name : Wo ist Fred? (2006)
Encoded date : UTC 2013-02-26 19:10:02
Writing application : mkvmerge v5.4.0 ('Piper') built on Mar 10 2012 13:34:39
Writing library : libebml v1.2.3 + libmatroska v1.3.0
Video #1
ID : 1
Format : AVC
Format/Info : Advanced Video Codec
Format profile : [email protected]
Format settings, CABAC : Yes
Format settings, ReFrames : 9 frames
Muxing mode : Container [email protected]
Codec ID : V_MPEG4/ISO/AVC
Duration : 1h 51mn
Bit rate : 4 595 Kbps
Nominal bit rate : 4 705 Kbps
Width : 1 280 pixels
Height : 696 pixels
Display aspect ratio : 16:9
Frame rate : 24.000 fps
Resolution : 8 bits
Colorimetry : 4:2:0
Scan type : Progressive
Bits/(Pixel*Frame) : 0.215
Stream size : 3.58 GiB (86%)
Title : 720p by nabby_3 / rutracker.org /
Writing library : core 120 r2164 da19765
Encoding settings : cabac=1 / ref=9 / deblock=1:-2:-2 / analyse=0x3:0x133 / me=umh / subme=11 / psy=1 / psy_rd=0.92:0.05 / mixed_ref=1 / me_range=32 / chroma_me=1 / trellis=2 / 8x8dct=1 / cqm=0 / deadzone=21,11 / fast_pskip=0 / chroma_qp_offset=-3 / threads=9 / sliced_threads=0 / nr=0 / decimate=1 / interlaced=0 / bluray_compat=0 / constrained_intra=0 / bframes=13 / b_pyramid=2 / b_adapt=2 / b_bias=0 / direct=3 / weightb=1 / open_gop=0 / weightp=2 / keyint=240 / keyint_min=22 / scenecut=40 / intra_refresh=0 / rc_lookahead=120 / rc=2pass / mbtree=1 / bitrate=4705 / ratetol=1.0 / qcomp=0.72 / qpmin=0 / qpmax=69 / qpstep=4 / cplxblur=20.0 / qblur=0.5 / ip_ratio=1.40 / aq=2:0.95
Audio #2
ID : 2
Format : AC-3
Format/Info : Audio Coding 3
Codec ID : A_AC3
Duration : 1h 51mn
Bit rate mode : Constant
Bit rate : 192 Kbps
Channel(s) : 2 channels
Channel positions : L R
Sampling rate : 48.0 KHz
Video delay : 2s 793ms
Stream size : 153 MiB (4%)
Title : UKR/ /2.0
Language : Ukrainian
Audio #3
ID : 3
Format : AC-3
Format/Info : Audio Coding 3
Codec ID : A_AC3
Duration : 1h 51mn
Bit rate mode : Constant
Bit rate : 448 Kbps
Channel(s) : 6 channels
Channel positions : Front: L C R, Surround: L R, LFE
Sampling rate : 48.0 KHz
Stream size : 358 MiB (8%)
Title : Original / / 5.1 ch / 448 kbps
Language : German
Скріншоти

Подяка за наданий сирий звук пані olgaya, а за зведення пану JACKUS
Доріжку взято з цього релізу і відсинхронізовано мною під . Доріжку було перероблено в 2.0 аби позбутися ефекту піаніно.

Джерело: &
Особиста оцінка: 10 - мені сподобалося


 Трекер:    Зареєстрований   

Завантажити / скачати фільм українською



відео для новачків



 Зареєстрований:   2013-02-26 21:34
 Розмір:   4.17 GB 
 Оцінка фільму:   10/10 (Голосів: 6)
   
dumanskiy 
Новенький


З нами з: 07.01.11
Востаннє: 28.11.16
Повідомлень: 18

2013-02-23 20:26  
як це ефект піаніно? тобто якесь ехо?
ValTriK 
Поважний учасник


З нами з: 18.12.11
Востаннє: 16.11.16
Повідомлень: 238

2013-02-23 20:57  
це коли тональність центрального каналу (запису з ТБ) і інших каналів різна. це не ехо. воно є тільки там де музика, звук нормальний загалом, можливо навіть не помітите що щось не такHappy
dumanskiy 
Новенький


З нами з: 07.01.11
Востаннє: 28.11.16
Повідомлень: 18

2013-02-23 21:11  
ValTriK
Все, вже згадав що це! вже таке чув...то дрібниці!)

ratbol 
Модератор HD


З нами з: 03.02.09
Востаннє: 07.12.16
Повідомлень: 1088

2013-02-23 21:35  
Це не дрібниці, треба переробити.
Або просто переробіть у 2.0, тобто подвійне моно з наявного ценрального каналу, тоді піаніно не буде, або знайдіть сирець і розтягніть його ресемплом, тоді при 5.1 піаніно не буде.

ValTriK 
Поважний учасник


З нами з: 18.12.11
Востаннє: 16.11.16
Повідомлень: 238

2013-02-26 21:39  
Доріжку було перероблено в 2.0 аби позбутися ефекту піаніно.
Можна завантажувати.

AntonGhost 
Свій


З нами з: 25.01.14
Востаннє: 06.12.16
Повідомлень: 91

2014-05-15 20:08  
Станьте на роздачу, будь ласка!
Ваш часовий пояс: GMT + 2 Години

Нова тема   Відповісти