Завантажити та скачати торренти українською


Гнів / Лють / Man on Fire (2004) 720p 2xUkr/Eng | Sub Multi

Нові коментарі

Нова тема   Відповісти
Автор Повідомлення
leroykendall 
Модератор HD


З нами з: 03.01.11
Востаннє: 20.11.16
Повідомлень: 749

2013-02-23 16:41  
Гнів / Лють / Man on Fire (2004) 720p 2xUkr/Eng | Sub Multi

Гнів / Лють / Man on Fire (2004) 720p 2xUkr/Eng | Sub Multi

«His art is death, and he is about to paint his masterpiece.»

Жанр: бойовик, драма, триллер
Країна: США, Великобританія






Кіностудія / кінокомпанія: Fox 2000 Pictures, Regency Enterprises, New Regency Pictures
Режисер: Тоні Скотт (Tony Scott)
Актори: Дензел Вашинґтон (Denzel Washington), Дакота Феннінг (Dakota Fanning), Марк Ентоні (Marc Anthony), Рада Мітчел (Radha Mitchell), Крістофер Вокен (Christopher Walken), Джанкарло Джанніні (Giancarlo Giannini), Рейчел Тікотін (Rachel Ticotin), Хесус Очоа (Jesús Ochoa), Міккі Рурк (Mickey Rourke), Анджеліна Пелаєз (Angelina Peláez)

Сюжет:
Спроможні жителі Мехіко в паніці: всього за шість днів в місті пропали 24 людини. Колишній агент ЦРУ Джон Крізі погоджується стати охоронцем дев`ятирічної дочки промисловця Семюеля Рамоса. Незабаром дівчинку викрадають з метою викупу, і Крізі починає мстити будь-якому, хто втягнутий в її викрадання або одержує від нього вигоду. І ніхто його не зупинить.


Тривалість: 02:26:07
Якість: 720p (ріп від HiDt)
Відео:
кодек:
розмір кадру: 1280 х 536
бітрейт: 7363 кб/с

Аудіо # 1:
мова: українська
переклад: двоголосий закадровий
кодек: 5.1
бітрейт: 640 кб/с

Аудіо # 2:
мова: українська
переклад: багатоголосий закадровий
кодек: 5.1
бітрейт: 640 кб/с

Аудіо # 3:
мова: англійська
переклад: оригінал
кодек: 5.1
бітрейт: 1510 кб/с

Аудіо # 4:
мова: англійська
переклад: коментарі режисера Тоні Скотта
кодек: OGG 2.0
бітрейт: 64 кб/с

Аудіо # 5:
мова: англійська
переклад: коментарі продюсера Лукаса Фостера, сценаріста Брайана Гелгеланда та Дакоти Феннінг
кодек: OGG 2.0
бітрейт: 64 кб/с

Субтитри:
мова: англійська, болгарська, французська, іспанська, шведська, норвезька, фінська, польська, чеська, грецька, румунська
тип: програмні (м'які)
формат: *.srt

Збережені оригінальні чаптери як на Blu-ray.


MediaInfo
Код:
General
Complete name                    : V:\Man on Fire (2004) [2xUkr, Eng] 720p [Hurtom] by leroykendall.mkv
Format                           : Matroska
File size                        : 10.7 GiB
Duration                         : 2h 26mn
Overall bit rate                 : 10.5 Mbps
Movie name                       : Man on Fire (2004) [2xUkr, Eng] 720p [Hurtom] by leroykendall
Encoded date                     : UTC 2013-02-23 12:05:35
Writing application              : mkvmerge v4.9.1 ('Ich will') зібрано Jul 11 2011 23:53:15
Writing library                  : libebml v1.2.1 + libmatroska v1.1.1

Video
ID                               : 1
Format                           : AVC
Format/Info                      : Advanced Video Codec
Format profile                   : [email protected]
Format settings, CABAC           : Yes
Format settings, ReFrames        : 8 frames
Muxing mode                      : Container [email protected]
Codec ID                         : V_MPEG4/ISO/AVC
Duration                         : 2h 25mn
Bit rate                         : 7 363 Kbps
Nominal bit rate                 : 7 578 Kbps
Width                            : 1 280 pixels
Height                           : 536 pixels
Display aspect ratio             : 2.35:1
Frame rate                       : 23.976 fps
Resolution                       : 24 bits
Colorimetry                      : 4:2:0
Scan type                        : Progressive
Bits/(Pixel*Frame)               : 0.448
Stream size                      : 7.51 GiB (70%)
Title                            : Man on Fire (2004) 720p
Writing library                  : core 100 r1659 57b2e56
Encoding settings                : cabac=1 / ref=8 / deblock=1:-3:-3 / analyse=0x3:0x113 / me=tesa / subme=10 / psy=1 / psy_rd=1.00:0.00 / mixed_ref=1 / me_range=64 / chroma_me=1 / trellis=2 / 8x8dct=1 / cqm=0 / deadzone=21,11 / fast_pskip=0 / chroma_qp_offset=-2 / threads=12 / sliced_threads=0 / nr=0 / decimate=1 / interlaced=0 / constrained_intra=0 / bframes=6 / b_pyramid=2 / b_adapt=2 / b_bias=0 / direct=3 / weightb=1 / open_gop=0 / weightp=2 / keyint=250 / keyint_min=25 / scenecut=40 / intra_refresh=0 / rc_lookahead=80 / rc=2pass / mbtree=1 / bitrate=7578 / ratetol=1.0 / qcomp=0.60 / qpmin=10 / qpmax=51 / qpstep=4 / cplxblur=20.0 / qblur=0.5 / ip_ratio=1.40 / aq=1:0.80

Audio #1
ID                               : 2
Format                           : AC-3
Format/Info                      : Audio Coding 3
Codec ID                         : A_AC3
Duration                         : 2h 26mn
Bit rate mode                    : Constant
Bit rate                         : 640 Kbps
Channel(s)                       : 6 channels
Channel positions                : Front: L C R, Surround: L R, LFE
Sampling rate                    : 48.0 KHz
Stream size                      : 669 MiB (6%)
Title                            : 5.1 @ 640 кб/с - двоголосий закадровий 2+2
Language                         : Ukrainian

Audio #2
ID                               : 3
Format                           : AC-3
Format/Info                      : Audio Coding 3
Codec ID                         : A_AC3
Duration                         : 2h 26mn
Bit rate mode                    : Constant
Bit rate                         : 640 Kbps
Channel(s)                       : 6 channels
Channel positions                : Front: L C R, Surround: L R, LFE
Sampling rate                    : 48.0 KHz
Stream size                      : 669 MiB (6%)
Title                            : 5.1 @ 640 кб/с - багатоголосий закадровий ICTV
Language                         : Ukrainian

Audio #3
ID                               : 4
Format                           :
Format/Info                      : Digital Theater Systems
Codec ID                         : A_DTS
Duration                         : 2h 26mn
Bit rate mode                    : Constant
Bit rate                         : 1 510 Kbps
Channel(s)                       : 6 channels
Channel positions                : Front: L C R, Surround: L R, LFE
Sampling rate                    : 48.0 KHz
Resolution                       : 24 bits
Stream size                      : 1.54 GiB (14%)
Title                            : 5.1 @ 1510 кб/с

Audio #4
ID                               : 5
Format                           : Vorbis
Format settings, Floor           : 1
Codec ID                         : A_VORBIS
Duration                         : 2h 26mn
Bit rate mode                    : Constant
Bit rate                         : 64.0 Kbps
Channel(s)                       : 2 channels
Sampling rate                    : 48.0 KHz
Resolution                       : 16 bits
Stream size                      : 66.9 MiB (1%)
Title                            : Commentary 1
Writing library                  : libVorbis 20090709 (UTC 2009-07-09)

Audio #5
ID                               : 6
Format                           : Vorbis
Format settings, Floor           : 1
Codec ID                         : A_VORBIS
Duration                         : 2h 26mn
Bit rate mode                    : Constant
Bit rate                         : 64.0 Kbps
Channel(s)                       : 2 channels
Sampling rate                    : 48.0 KHz
Resolution                       : 16 bits
Stream size                      : 66.9 MiB (1%)
Title                            : Commentary 2
Writing library                  : libVorbis 20090709 (UTC 2009-07-09)

Text #1
ID                               : 7
Format                           : UTF-8
Codec ID                         : S_TEXT/UTF8
Codec ID/Info                    : UTF-8 Plain Text

Text #2
ID                               : 8
Format                           : UTF-8
Codec ID                         : S_TEXT/UTF8
Codec ID/Info                    : UTF-8 Plain Text
Language                         : Bulgarian

Text #3
ID                               : 9
Format                           : UTF-8
Codec ID                         : S_TEXT/UTF8
Codec ID/Info                    : UTF-8 Plain Text
Language                         : French

Text #4
ID                               : 10
Format                           : UTF-8
Codec ID                         : S_TEXT/UTF8
Codec ID/Info                    : UTF-8 Plain Text
Language                         : Spanish

Text #5
ID                               : 11
Format                           : UTF-8
Codec ID                         : S_TEXT/UTF8
Codec ID/Info                    : UTF-8 Plain Text
Language                         : Swedish

Text #6
ID                               : 12
Format                           : UTF-8
Codec ID                         : S_TEXT/UTF8
Codec ID/Info                    : UTF-8 Plain Text
Language                         : Norwegian

Text #7
ID                               : 13
Format                           : UTF-8
Codec ID                         : S_TEXT/UTF8
Codec ID/Info                    : UTF-8 Plain Text
Language                         : Finnish

Text #8
ID                               : 14
Format                           : UTF-8
Codec ID                         : S_TEXT/UTF8
Codec ID/Info                    : UTF-8 Plain Text
Language                         : Polish

Text #9
ID                               : 15
Format                           : UTF-8
Codec ID                         : S_TEXT/UTF8
Codec ID/Info                    : UTF-8 Plain Text
Language                         : Czech

Text #10
ID                               : 16
Format                           : UTF-8
Codec ID                         : S_TEXT/UTF8
Codec ID/Info                    : UTF-8 Plain Text
Language                         : Greek

Text #11
ID                               : 17
Format                           : UTF-8
Codec ID                         : S_TEXT/UTF8
Codec ID/Info                    : UTF-8 Plain Text
Language                         : Romanian

Menu
00:00:00.000                     : en:Main Titles
00:03:53.399                     : en:On Impulse
00:06:44.570                     : en:Unprotected
00:11:11.045                     : en:Settling In
00:18:14.343                     : en:The Hand of God
00:22:09.411                     : en:New Toy
00:26:30.922                     : en:Failure to Fire
00:30:19.776                     : en:On Edge
00:35:19.867                     : en:No Fear
00:40:31.595                     : en:In Loco Parents
00:45:46.034                     : en:The Piano Lesson
00:49:35.013                     : en:Outgunned
00:53:02.971                     : en:Police Assistance
00:57:55.346                     : en:Negotiations
01:00:42.305                     : en:The Drop
01:04:07.760                     : en:On the Road to Recovery
01:08:00.326                     : en:Lois Lane
01:12:02.818                     : en:The Quest Begins
01:18:55.105                     : en:Extracting Information
01:26:57.420                     : en:At the Rave
01:31:09.380                     : en:Bonfire
01:36:51.555                     : en:Masterpiece
01:39:20.079                     : en:Paging the President
01:49:05.455                     : en:The Truth
01:57:25.246                     : en:The Voice
02:07:38.025                     : en:A Life for a Life
02:13:32.129                     : en:Going Home
02:20:19.994                     : en:End Titles


Скріншоти:



Подяки
robotron005 та karvai0 за сирі звуки
JACKUS за зведені українські звукові доріжки 640 кб/с
damyen за українізований постер



Джерело:


Срібний реліз (на рейтинг впливає 50% завантаженого)
 Трекер:    Зареєстрований   

Завантажити / скачати фільм українською



відео для новачків



 Зареєстрований:   2013-02-23 16:41
 Розмір:   10.71 GB 
 Оцінка фільму:   9.9/10 (Голосів: 14)
   
Інші релізи
   Гнів / Лють / Man on Fire (2004) 2xUkr/Eng | sub Eng JACKUS  9 / 3   3.37 GB   2013-01-30 14:35 
oddity_man 
Новенький


З нами з: 14.02.13
Востаннє: 11.11.16
Повідомлень: 22

2013-02-23 18:03  
один з улюблених фільмів. напевно, через ідеально підібрану пару акторів, не уявляю собі інших, на їх місцях. таке собі протиставлення безпощадності і милої непорочності.
kacher2 
Свій


З нами з: 02.10.10
Востаннє: 05.11.16
Повідомлень: 128

2013-02-23 19:08  
Питання: Чому Мехіко? Ви не розумієте трансліту? Чи вам на скільки подобається російський переклад що ви ліпите цей поганий суржик без докорів сумління?
JACKUS 
Відео Гуртом - фільмокрай
Відео Гуртом - фільмокрай


З нами з: 08.10.09
Востаннє: 22.11.16
Повідомлень: 1943

2013-02-23 20:11  
Цитата:
Питання: Чому Мехіко?

Хм... Цікаво, а як повинно бути??

leroykendall 
Модератор HD


З нами з: 03.01.11
Востаннє: 20.11.16
Повідомлень: 749

2013-02-23 20:54  
kacher2 написано:
Питання: Чому Мехіко?

Пройшовся по декільком словникам - місто Mexico з англійської перекладається саме як Мехіко. А які ще є варіанти?

JACKUS 
Відео Гуртом - фільмокрай
Відео Гуртом - фільмокрай


З нами з: 08.10.09
Востаннє: 22.11.16
Повідомлень: 1943

2013-02-23 22:44  
Цитата:
Пройшовся по декільком словникам - місто Mexico з англійської перекладається саме як Мехіко. А які ще є варіанти?

Нема ніяких. Не зважай

natashelka 
VIP


З нами з: 23.05.10
Востаннє: 02.12.16
Повідомлень: 441

2015-05-10 10:24  
Гра Дензела Вашинґтона стає надто типовою (це мабуть треба писати після перегляду The Equalizer), але грає він відмінно, так що не губиш інтерес до перегляду. Це його амплуа - сильний порядний нігер з власним почуттям справедливості. Але і The Taking of Pelham 1 2 3, і Deja Vu і The Equalizer і Man on Fire ріднить саме неперевершена гра Дензела Вашинґтона. Цікаво було б побачити його у якомусь фільми на пару з Куба Ґудінґом, або іншим рівним по класу актором і це не тільки моя думка, бо чула, що останнім часом стрічки з Дензелом Вашинґтоном провалюються у прокаті. Раджу до перегляду.
Ваш часовий пояс: GMT + 2 Години

Нова тема   Відповісти