Завантажити та скачати торренти українською


Людина з острова Мен / The Manxman (1929) | sub Ukr

Нові коментарі

Нова тема   Відповісти
Останній раз роздавалося andiua (2016-12-09)
Автор Повідомлення
Demetrios 
VIP


З нами з: 28.01.10
Востаннє: 08.12.16
Повідомлень: 301

2013-02-23 16:39  
Людина з острова Мен / The Manxman (1929) | sub Ukr

Людина з острова Мен / The Manxman (1929) | sub Ukr


Жанр: німе кіно, мелодрама, драма
Країна: Великобританія



Кіностудія / кінокомпанія: British International Pictures
Режисер: Альфред Хічкок (Alfred Hitchcock)
Актори: Карл Бріссон (Carl Brisson), Малколм Кін (Malcolm Keen), Енні Ондра (Anny Ondra), Рендл Айртон (Randle Ayrton)

Сюжет:
Незважаючи на різницю в походженні, рибалка Піт і адвокат Філіп - друзі з дитинства. Піт любить Кейт, доньку місцевого шинкаря, і хоче на ній одружитися. Та її батько і чути нічого не бажає, оскільки не вважає Піта рівною партією своїй доньці. Тоді Піт покидає острів, пообіцявши, що повернеться, коли розбагатіє. Перед від'їздом він просить Філіпа доглянути за Кейт, чим розбуджує їхні симпатії один до одного...


Тривалість: 01:20:07
Якість:
Відео:
кодек:
розмір кадру: 640x480
бітрейт: 1199 кб/с

Аудіо:
мова: музичний акомпанемент
переклад: оригінал
кодек: 2.0
бітрейт: 128 кб/с

Інтертитри:
мова: англійська

Субтитри:
мова: українська
переклад: Demetrios (з російської, звірено з англійською)
тип: програмні (м'які)
формат: *.srt

MediaInfo
Код:
General
Format                                   : AVI
Format/Info                              : Audio Video Interleave
File size                                : 768 MiB
Duration                                 : 1h 20mn
Overall bit rate                         : 1 340 Kbps

Video
ID                                       : 0
Format                                   : MPEG-4 Visual
Format profile                           : [email protected]
Format settings, BVOP                    : No
Format settings, QPel                    : No
Format settings, GMC                     : No warppoints
Format settings, Matrix                  : Default (H.263)
Codec ID                                 :
Codec ID/Hint                            :
Duration                                 : 1h 20mn
Bit rate                                 : 1 199 Kbps
Width                                    : 640 pixels
Height                                   : 480 pixels
Display aspect ratio                     : 4:3
Frame rate                               : 25.000 fps
Color space                              : YUV
Chroma subsampling                       : 4:2:0
Bit depth                                : 8 bits
Scan type                                : Progressive
Compression mode                         : Lossy
Bits/(Pixel*Frame)                       : 0.156
Stream size                              : 687 MiB (90%)
Writing library                          : Magic0432

Audio
ID                                       : 1
Format                                   : MPEG Audio
Format version                           : Version 1
Format profile                           : Layer 3
Mode                                     : Joint stereo
Mode extension                           : MS Stereo
Codec ID                                 : 55
Codec ID/Hint                            : MP3
Duration                                 : 1h 20mn
Bit rate mode                            : Constant
Bit rate                                 : 128 Kbps
Channel(s)                               : 2 channels
Sampling rate                            : 44.1 KHz
Compression mode                         : Lossy
Stream size                              : 73.3 MiB (10%)
Alignment                                : Aligned on interleaves
Interleave, duration                     : 26 ms (0.65 video frame)
Writing library                          : LAME3.97
Джерело:
Особиста оцінка: 8 - сподобається любителям німого кіно, а також класичних мелодрам і драм.



Відтепер усі німі фільми Альфреда Хічкока на Толоці:
Сад насолод / The Pleasure Garden (1925) | sub Ukr
Квартирант / The Lodger: A Story of the London Fog (1927) | sub Ukr
Ринг / Кохання дужого чоловіка / The Ring (1927) AVC | sub Ukr
По схилу / Downhill (1927) | sub Ukr
Дружина фермера / The Farmer's Wife (1928) | sub Ukr
Легка поведінка / Easy Virtue (1928) | sub Ukr
Шампанське / Champagne (1928) AVC | sub Ukr
Людина з острова Мен / The Manxman (1929) | sub Ukr

Інші мої релізи раннього німого кіно:
Колекція Вільяма Діксона (36 фільмів) / William K.L. Dickson Movies (1889-1902) , | sub Ukr
Колекція Едвіна Портера (92 фільми) / Edwin S. Porter Shorts (1898-1908) , | sub Ukr
Рекет / The Racket (1928) | sub Ukr (реж. Льюїс Майлстоун, фільм-нуар)


 Трекер:    Зареєстрований   

Завантажити / скачати фільм українською



відео для новачків



 Зареєстрований:   2013-02-23 16:39
 Розмір:   768 MB 
 Оцінка фільму:   10/10 (Голосів: 5)
   
Ваш часовий пояс: GMT + 2 Години

Нова тема   Відповісти