Завантажити та скачати торренти українською


VA - Червоне... Чорне... Біле... (Мистецький проект Олександра Смика) (2001) [FLAC] | Bard

Нові коментарі

Нова тема   Відповісти
Автор Повідомлення
civ 
VIP


З нами з: 16.02.11
Востаннє: 06.12.16
Повідомлень: 429

2013-02-22 18:02  
VA - Червоне... Чорне... Біле... (Мистецький проект Олександра Смика) (2001) [FLAC] | Bard

Стиль: Bard
Країна, місто: Україна, Тернопіль
Видавець: Олександр Смик

Пісні:
    01. Олександр Гаркавий - Майстриня
    02. Гурт «Чорні черешні» - Не вір
    03. Юрій Поліщук - Катерина
    04. Юрій Поліщук - Жінка другова
    05. Наталя Криничанка - Пане підпоручнику
    06. Гурт «Чорні черешні» - Прощай, Україно
    07. Гурт «Чорні черешні» - Благословення
    08. Леонід Репета, Гурт «НЗ» - Берегиня
    09. Павло Зібров - Шануймося панове
    10. Олександр Гаркавий - Мені потрібно

Тривалість: 00:36:03
Мова: українська
Аудіо-кодек: FLAC
Бітрейт: 801 кб/с
Джерело: власний ріп
Тип ріпу: image + cue + covers
EAC Log

Exact Audio Copy V1.0 beta 3 from 29. August 2011

EAC extraction logfile from 22. February 2013, 16:38

Various / Червоне… Чорне… Біле…

Used drive : MATSHITADVD-RAM UJ8C1 Adapter: 1 ID: 0

Read mode : Secure
Utilize accurate stream : Yes
Defeat audio cache : Yes
Make use of C2 pointers : No

Read offset correction : 6
Overread into Lead-In and Lead-Out : No
Fill up missing offset samples with silence : Yes
Delete leading and trailing silent blocks : No
Null samples used in CRC calculations : Yes
Used interface : Native Win32 interface for Win NT & 2000

Used output format : Internal WAV Routines
Sample format : 44.100 Hz; 16 Bit; Stereo

TOC of the extracted CD

Track | Start | Length | Start sector | End sector
---------------------------------------------------------
1 | 0:00.00 | 2:54.21 | 0 | 13070
2 | 2:54.21 | 4:19.63 | 13071 | 32558
3 | 7:14.09 | 2:34.72 | 32559 | 44180
4 | 9:49.06 | 4:02.21 | 44181 | 62351
5 | 13:51.27 | 3:31.47 | 62352 | 78223
6 | 17:22.74 | 4:12.25 | 78224 | 97148
7 | 21:35.24 | 3:29.24 | 97149 | 112847
8 | 25:04.48 | 4:51.74 | 112848 | 134746
9 | 29:56.47 | 2:17.66 | 134747 | 145087
10 | 32:14.38 | 3:48.38 | 145088 | 162225

Range status and errors

Selected range

Filename D:\Music\Various - Червоне… Чорне… Біле… (2001)\Various - Червоне… Чорне… Біле….wav

Peak level 99.8 %
Extraction speed 4.4 X
Range quality 99.9 %
Copy CRC 59460550
Copy OK

No errors occurred

End of status report
Audiochecker

fooCDtect - foobar2000 + auCDtect, baralgin.

auCDtect: CD records authenticity detector, version 0.8.2
Copyright (c) 2004 Oleg Berngardt. All rights reserved.
Copyright (c) 2004 Alexander Djourik. All rights reserved.

mode: 0

===========================================
Track: 01. Майстриня
Quality: MPEG 91%
===========================================
Track: 02. Не вір
Quality: CDDA 100%
===========================================
Track: 03. Катерина
Quality: CDDA 100%
===========================================
Track: 04. Жінка другова
Quality: CDDA 100%
===========================================
Track: 05. Пане підпоручнику
Quality: CDDA 76%
===========================================
Track: 06. Прощай, Україно
Quality: CDDA 100%
===========================================
Track: 07. Благословення
Quality: CDDA 99%
===========================================
Track: 08. Берегиня
Quality: CDDA 100%
===========================================
Track: 09. Шануймось, панове
Quality: CDDA 99%
===========================================
Track: 10. Мені потрібно
Quality: CDDA 100%
===========================================
Додаткова інформація:
Альбом пісень Олександра Смика. Вказано, що це частина перша, але другої в природі не зустрічав...
Диск виданий Олександром Смиком - самвидав. Хоча, на звороті вказано ℗ РІА "Новина".
Всередині першого треку є маленький артефакт. То проблема на диску. Але не знаю, чи на всіх, чи тільки на моєму.


Також на Толоці:
Цей альбом у MP3


Якщо Ви справді бажаєте підтримати українське - після прослуховування, якщо музика вам сподобалась, придбайте ліцензійний диск. Підтримаймо вітчизняних виконавців!


Срібний реліз (на рейтинг впливає 50% завантаженого)
 Трекер:    Зареєстрований   

Завантажити / скачати українську музику



відео для новачків



 Зареєстрований:   2013-02-22 18:02
 Розмір:   218 MB 
 Оцінка музики:   10/10 (Голосів: 3)
   
Форкуш 
VIP


З нами з: 03.02.10
Востаннє: 06.12.16
Повідомлень: 1536

2013-02-22 18:13  
Ох і чудові пісні...
А Жінка другова і Пане підпоручнику як під гітару співається...
ех...

Ваш часовий пояс: GMT + 2 Години

Нова тема   Відповісти