Завантажити та скачати торренти українською


Audi Sile - Demonsteration (2005) [FLAC] | Gothic Industrial

Нові коментарі

Нова тема   Відповісти
Автор Повідомлення
civ 
VIP


З нами з: 16.02.11
Востаннє: 04.12.16
Повідомлень: 429

2013-02-21 23:57  
Audi Sile - Demonsteration (2005) [FLAC] | Gothic Industrial

Audi Sile - Demonsteration (2005) [FLAC] | Gothic Industrial


Стиль: Gothic Industrial
Сайти: Офіційний сайт
Видавець: Гурт
Виконавці:
Віталій Фльонц (вокал)
Інна Корнелюк (вокал)
Віталій Усік (гітара)
Анна Вольф (клавіші)
Руслан Дрозд (бас-гітара)
Артем Усік (сесійні барабани)

Пісні:
    1. Народ
    2. Геть з моєї землі
    3. Так
    4. Stealth
    5. Ти моя
    6. Вербовая дощечка (українська народна пісня)
    7. Вальс Мертвих Душ
    8. Never Let Me Down (переспів на Depeche Mode)
    9. Christendom (переспів на Paradise Lost, за участі Ірини "Silvi" Ковальської)

Тривалість: 00:51:16
Мова: українська (1-7), англійська (8-9)
Аудіо-кодек: FLAC
Бітрейт: 839 кб/с
Джерело: власний ріп
Тип ріпу: image + cue + covers
EAC Log

Exact Audio Copy V1.0 beta 2 from 29. April 2011

EAC extraction logfile from 21. February 2013, 9:09

Audi Sile / Demonsteration

Used drive : Optiarc DVD RW AD-7200A Adapter: 0 ID: 0

Read mode : Secure
Utilize accurate stream : Yes
Defeat audio cache : Yes
Make use of C2 pointers : No

Read offset correction : 48
Overread into Lead-In and Lead-Out : No
Fill up missing offset samples with silence : Yes
Delete leading and trailing silent blocks : No
Null samples used in CRC calculations : Yes
Used interface : Native Win32 interface for Win NT & 2000

Used output format : Internal WAV Routines
Sample format : 44.100 Hz; 16 Bit; Stereo

TOC of the extracted CD

Track | Start | Length | Start sector | End sector
---------------------------------------------------------
1 | 0:00.00 | 5:16.04 | 0 | 23703
2 | 5:16.04 | 5:32.70 | 23704 | 48673
3 | 10:48.74 | 5:04.03 | 48674 | 71476
4 | 15:53.02 | 5:19.32 | 71477 | 95433
5 | 21:12.34 | 5:46.57 | 95434 | 121440
6 | 26:59.16 | 6:29.01 | 121441 | 150616
7 | 33:28.17 | 6:22.68 | 150617 | 179334
8 | 39:51.10 | 5:04.40 | 179335 | 202174
9 | 44:55.50 | 6:20.13 | 202175 | 230687

Range status and errors

Selected range

Filename D:\Music\Audi Sile - Demonsteration (2005)\Audi Sile - Demonsteration.wav

Peak level 100.0 %
Extraction speed 4.0 X
Range quality 99.9 %
Copy CRC A0C60346
Copy OK

No errors occurred

End of status report
Audiochecker

fooCDtect - foobar2000 + auCDtect, baralgin.

auCDtect: CD records authenticity detector, version 0.8.2
Copyright (c) 2004 Oleg Berngardt. All rights reserved.
Copyright (c) 2004 Alexander Djourik. All rights reserved.

mode: 0

=======================================================
Track: 01 - Народ
Quality: CDDA, 100%
=======================================================
Track: 02 - Геть з моєї землі
Quality: MPEG, 95%
=======================================================
Track: 03 - Так
Quality: CDDA, 100%
=======================================================
Track: 04 - Stealth
Quality: CDDA, 100%
=======================================================
Track: 05 - Ти моя
Quality: CDDA, 100%
=======================================================
Track: 06 - Вербовая дощечка
Quality: CDDA, 100%
=======================================================
Track: 07 - Вальс Мертвих Душ
Quality: CDDA, 100%
=======================================================
Track: 08 - Never let me down
Quality: CDDA, 99%
=======================================================
Track: 09 - Christendom
Quality: CDDA, 100%
=======================================================
Додаткова інформація:
Музика AUDI SILE є унікальною, і на сучасній українській сцені подібних аналогів немає. Це поєднання жорстких електронно-індустріальних ритмів із металічним драйвом гітар та прозорим звучанням електрооргану, що створює похмуру і меланхолійну атмосферу.
Музику AUDI SILE можна окреслити поєднанням таких стилів як gothic/industrial/dark wave.


Також на Толоці:
Audi Sile - DeMonsteRation (2005) [MP3]


Якщо Ви справді бажаєте підтримати українське - після прослуховування, якщо музика вам сподобалась, придбайте ліцензійний диск. Підтримаймо вітчизняних виконавців!


Срібний реліз (на рейтинг впливає 50% завантаженого)
 Трекер:    Зареєстрований   

Завантажити / скачати українську музику



відео для новачків



 Зареєстрований:   2013-02-21 23:57
 Розмір:   320 MB 
 Оцінка музики:   9.8/10 (Голосів: 6)
   
sko4 
Поважний учасник


З нами з: 23.06.08
Востаннє: 05.12.16
Повідомлень: 181

2013-02-22 10:05  
Класний гурт був. Намагались з друзями не проґавлювати жодного їхнього виступу Happy
musicfan 
Модератор музики


З нами з: 27.01.09
Востаннє: 05.12.16
Повідомлень: 893

2013-02-22 10:57  
sko4 написано:
Класний гурт був. Намагались з друзями не проґавлювати жодного їхнього виступу Happy

Чому був? Гурт досі продовжує свою діяльність, правда з 2012 року AUDI SILE радикально змінюють стиль виконання й свій репертуар. Цього ж року гурт починає працювати в оновленому складі.

civ 
VIP


З нами з: 16.02.11
Востаннє: 04.12.16
Повідомлень: 429

2013-02-22 16:38  
Радикально? Цікаво, що це буде.
sko4 
Поважний учасник


З нами з: 23.06.08
Востаннє: 05.12.16
Повідомлень: 181

2013-02-23 10:55  
civ написано:
Цікаво, що це буде.

На їхньому сайті є кілька треків за 2011-2012.
До речі, додайте сайт:
AUDI SILE
http://audi-sile.com.ua

Lev 
VIP


З нами з: 14.10.09
Востаннє: 05.12.16
Повідомлень: 1819

2013-03-17 15:59  
Надзвичайно вдячний за лося, давно люблю цей проект.
Ваш часовий пояс: GMT + 2 Години

Нова тема   Відповісти