Завантажити та скачати торренти українською


Вомбад - Вісім годин на добу (2005) [FLAC] | Dark Rock

Нові коментарі

Нова тема   Відповісти
Автор Повідомлення
civ 
VIP


З нами з: 16.02.11
Востаннє: 04.12.16
Повідомлень: 429

2013-02-21 23:44  
Вомбад - Вісім годин на добу (2005) [FLAC] | Dark Rock

Вомбад - Вісім годин на добу (2005) [FLAC] | Dark Rock


Стиль: Dark Rock
Країна, місто: Україна, Рівне
Видавець: Гурт
Виконавці:
Вадим Гончаров - вокал
Олександр Надозірний - гітара
Дмитро Камінський - бас
Сергій Пилипчук - барабани

Пісні:
    01. Вісім годин
    02. Сон
    03. Не зупиняй
    04. Так
    05. Серед людей
    06. Сумую
    07. Стільки днів
    08. Дощ
    09. Що хотів
    10. Мій вихідний
    11. Разом бути

Тривалість: 00:38:22
Мова: українська
Аудіо-кодек: FLAC
Бітрейт: 993 кб/с
Джерело: власний ріп
Тип ріпу: image + cue + covers
EAC Log

Exact Audio Copy V1.0 beta 2 from 29. April 2011

EAC extraction logfile from 21. February 2013, 8:48

Вомбад / Вісім годин на добу

Used drive : Optiarc DVD RW AD-7200A Adapter: 0 ID: 0

Read mode : Secure
Utilize accurate stream : Yes
Defeat audio cache : Yes
Make use of C2 pointers : No

Read offset correction : 48
Overread into Lead-In and Lead-Out : No
Fill up missing offset samples with silence : Yes
Delete leading and trailing silent blocks : No
Null samples used in CRC calculations : Yes
Used interface : Native Win32 interface for Win NT & 2000

Used output format : Internal WAV Routines
Sample format : 44.100 Hz; 16 Bit; Stereo

TOC of the extracted CD

Track | Start | Length | Start sector | End sector
---------------------------------------------------------
1 | 0:00.00 | 3:54.28 | 0 | 17577
2 | 3:54.28 | 3:47.71 | 17578 | 34673
3 | 7:42.24 | 4:16.26 | 34674 | 53899
4 | 11:58.50 | 2:30.57 | 53900 | 65206
5 | 14:29.32 | 3:51.33 | 65207 | 82564
6 | 18:20.65 | 4:13.68 | 82565 | 101607
7 | 22:34.58 | 3:27.72 | 101608 | 117204
8 | 26:02.55 | 2:57.24 | 117205 | 130503
9 | 29:00.04 | 3:49.06 | 130504 | 147684
10 | 32:49.10 | 2:40.69 | 147685 | 159753
11 | 35:30.04 | 2:52.05 | 159754 | 172658

Range status and errors

Selected range

Filename D:\Music\Вомбад - Вісім годин на добу (2005)\Вомбад - Вісім годин на добу.wav

Peak level 100.0 %
Extraction speed 3.6 X
Range quality 99.9 %
Copy CRC BD24C910
Copy OK

No errors occurred

End of status report
Audiochecker

fooCDtect - foobar2000 + auCDtect, baralgin.

auCDtect: CD records authenticity detector, version 0.8.2
Copyright (c) 2004 Oleg Berngardt. All rights reserved.
Copyright (c) 2004 Alexander Djourik. All rights reserved.

mode: 0

=======================================================
Track: 01 - Вісім годин
Quality: CDDA, 100%
=======================================================
Track: 02 - Сон
Quality: CDDA, 100%
=======================================================
Track: 03 - Не зупиняй
Quality: CDDA, 100%
=======================================================
Track: 04 - Так
Quality: CDDA, 100%
=======================================================
Track: 05 - Серед людей
Quality: CDDA, 100%
=======================================================
Track: 06 - Сумую
Quality: CDDA, 100%
=======================================================
Track: 07 - Стільки днів
Quality: CDDA, 100%
=======================================================
Track: 08 - Дощ
Quality: CDDA, 100%
=======================================================
Track: 09 - Що хотів
Quality: CDDA, 100%
=======================================================
Track: 10 - Мій вихідний
Quality: CDDA, 100%
=======================================================
Track: 11 - Разом бути
Quality: CDDA, 100%
=======================================================
Додаткова інформація:
Нарешті – ще одне нове ім’я. Вже сам факт тішить. Хоч і немає тут явних, безпомилкових зв’язків із Австралією та її фауною, але щось таке сумчасте у музиці присутнє. Пояснити не можу. На щастя, є й інше. Наприклад, у звучанні змішано готичні нотки, настрої – з настроями неоромантичними. З одного боку, ця музика – явно міська, але з іншого боку – гадаю, вона доволі природно чомусь звучала б навіть у буші або пустелі. Вокал. Нагадує туман. Нагадує слово „джентльмен”. І притаманне йому специфічне, схоже на англійське, відсторонення – але не екзальтоване. У всякому разі, емоції здаються чесними – і, можливо, саме цим можна виправдати загальну підгруженість картинок. До того ж, альбом ніяк не назвеш кволим, безсилим. Навпаки, в ньому є якась інтелігентна, непомітна з першого погляду, внутрішня напруга, сила, що не має відношення до м’язів. Якщо тільки мова не йде про м’язи психічно-психологічні. Коротше кажучи, приємно було познайомитись.




Якщо Ви справді бажаєте підтримати українське - після прослуховування, якщо музика вам сподобалась, придбайте ліцензійний диск. Підтримаймо вітчизняних виконавців!


Срібний реліз (на рейтинг впливає 50% завантаженого)
 Трекер:    Зареєстрований   

Завантажити / скачати українську музику



відео для новачків



 Зареєстрований:   2013-02-21 23:44
 Розмір:   300 MB 
 Оцінка музики:   10/10 (Голосів: 4)
   
Ваш часовий пояс: GMT + 2 Години

Нова тема   Відповісти