Завантажити та скачати торренти українською


Nameless - Шось сталось у лісі (2007) [FLAC] | Psychedelic Rock

Нові коментарі

Нова тема   Відповісти
Автор Повідомлення
civ 
VIP


З нами з: 16.02.11
Востаннє: 02.12.16
Повідомлень: 428

2013-02-21 23:33  
Nameless - Шось сталось у лісі (2007) [FLAC] | Psychedelic Rock

Стиль: Psychedelic Rock
Країна, місто: Україна, Тернопіль
Сайти: Офіційний сайт
Видавець: Гурт
Виконавці:
Світлана Фролова - вокал, губна гармоніка
Наталя Возняк - альт, окарина, бек-вокал, клавішні
Сергій Бучинський - гітара
Зорян Безкоровайний - гітара
Валерій Мельников - бас-гітара
Олег Ломаковський - ударні

Пісні:
    01. Нічого не сталось
    02. Креолка
    03. Сонячні вітрила
    04. Змучений
    05. Шось сталось у лісі
    06. Двадцять чотири години
    07. Старий пердун
    08. Десять галичан
    09. Хто ти такий?
    10. Шешорська (в пам’ять про Сіда Баррета)
    11. Нічого не сталось (rmx by electrostatic death)
    12. Хто ти такий? (rmx by купуємо волосся!)
    13. Ой, болить у мене… (rmx by electrostatic death)
    14. Хто ти такий? (rmx by Venus)
    15. Бонус 1
    16. Вільний та самотній
    17. Труби, дим, вогонь
    18. Апокаліпсис Артима
    19. Подорож

Тривалість: 01:19:20
Мова: українська
Аудіо-кодек: FLAC
Бітрейт: 920 кб/с
Джерело: власний ріп
Тип ріпу: image + cue + covers
EAC Log

Exact Audio Copy V0.99 prebeta 5 from 4. May 2009

Звіт EAC про видобування, котре виконане 16. листопада 2009, 11:53

Шось сталось у лісі… / Nameless

Дисковод: Optiarc DVD RW AD-7200A Adapter: 0 ID: 0

Режим читання : Точний
Використати точний потік : Так
Вимкнути аудіо кеш : Ні
Застосувати мітки C2 : Так

Корекція зміщення при читанні : 0
Екстрачитання областей Lead-in і Lead-out : Ні
Заповнення пропущених семплів тишею : Так
Видалення блоків з тишею на початку і кінці : Ні
При вирахуванні CRC використовувались нульові семпли : Ні
Використаний інтерфейс : 'Рідний' Win32-інтерфейс для Win NT/2000

Застосований вихідний формат : Внутрішні WAV-операції
Формат семпла : 44.100 Гц; 16 біт; стерео

TOC видобутого CD

Трек | Старт | Довжина | Початковий сектор | Кінцевий сектор
------------------------------------------------------------------
1 | 0:00.00 | 5:43.72 | 0 | 25796
2 | 5:43.72 | 6:58.00 | 25797 | 57146
3 | 12:41.72 | 6:21.49 | 57147 | 85770
4 | 19:03.46 | 5:27.73 | 85771 | 110368
5 | 24:31.44 | 4:49.65 | 110369 | 132108
6 | 29:21.34 | 4:23.34 | 132109 | 151867
7 | 33:44.68 | 5:36.19 | 151868 | 177086
8 | 39:21.12 | 2:45.73 | 177087 | 189534
9 | 42:07.10 | 3:36.00 | 189535 | 205734
10 | 45:43.10 | 4:09.20 | 205735 | 224429
11 | 49:52.30 | 2:13.58 | 224430 | 234462
12 | 52:06.13 | 3:01.71 | 234463 | 248108
13 | 55:08.09 | 2:16.12 | 248109 | 258320
14 | 57:24.21 | 3:05.67 | 258321 | 272262
15 | 60:30.13 | 4:15.00 | 272263 | 291387
16 | 64:45.13 | 4:21.00 | 291388 | 310962
17 | 69:06.13 | 4:06.63 | 310963 | 329475
18 | 73:13.01 | 2:56.70 | 329476 | 342745
19 | 76:09.71 | 3:09.44 | 342746 | 356964

Статус діапазону і помилки

Обраний діапазон

Ім'я файлу D:\Music\Шось сталось у лісі… - Nameless.wav

Підозріла позиція 1:01:37 - 1:02:01
Підозріла позиція 1:08:06 - 1:08:19
Підозріла позиція 1:08:22 - 1:08:26
Підозріла позиція 1:08:28 - 1:08:37
Підозріла позиція 1:09:29
Підозріла позиція 1:09:33 - 1:13:09
Підозріла позиція 1:13:13 - 1:16:05
Підозріла позиція 1:16:10 - 1:16:15
Підозріла позиція 1:16:46
Підозріла позиція 1:16:48
Підозріла позиція 1:16:51 - 1:16:52
Підозріла позиція 1:16:57 - 1:16:59
Підозріла позиція 1:17:01 - 1:17:55
Підозріла позиція 1:17:57 - 1:17:59
Підозріла позиція 1:18:02 - 1:18:05
Підозріла позиція 1:18:08 - 1:18:09
Підозріла позиція 1:18:11 - 1:18:14

Піковий рівень 100.0 %
Якість діапазону 92.0 %
CRC копії 22DBAD3E
Копіювання довершене

Були помилки

Кінець звіту
Audiochecker

fooCDtect - foobar2000 + auCDtect, baralgin.

auCDtect: CD records authenticity detector, version 0.8.2
Copyright (c) 2004 Oleg Berngardt. All rights reserved.
Copyright (c) 2004 Alexander Djourik. All rights reserved.

mode: 0

===========================================
Track: 01. Нічого не сталось
Quality: CDDA 100%
===========================================
Track: 02. Креолка
Quality: CDDA 100%
===========================================
Track: 03. Сонячні вітрила
Quality: CDDA 100%
===========================================
Track: 04. Змучений
Quality: CDDA 100%
===========================================
Track: 05. Шось сталось у лісі
Quality: CDDA 100%
===========================================
Track: 06. Двадцять чотири години
Quality: CDDA 100%
===========================================
Track: 07. Старий пердун
Quality: CDDA 100%
===========================================
Track: 08. Десять галичан
Quality: CDDA 100%
===========================================
Track: 09. Хто ти такий
Quality: CDDA 99%
===========================================
Track: 10. Шешорська (в пам’ять про Сіда Баррета)
Quality: MPEG 100%
===========================================
Track: 11. Нічого не сталось (rmx by electrostatic death)
Quality: CDDA 100%
===========================================
Track: 12. Хто ти такий (rmx by купуємо волосся!)
Quality: MPEG 89%
===========================================
Track: 13. Ой, болить у мене… (rmx by electrostatic death)
Quality: MPEG 90%
===========================================
Track: 14. Хто ти такий (rmx by Venus)
Quality: CDDA 100%
===========================================
Track: 15. Бонус 1
Quality: CDDA 85%
===========================================
Track: 16. Вільний та самотній
Quality: MPEG 95%
===========================================
Track: 17. Труби, дим, вогонь
Quality: MPEG 95%
===========================================
Track: 18. Апокаліпсис Артима
Quality: MPEG 95%
===========================================
Track: 19. Подорож
Quality: MPEG 95%
===========================================
Додаткова інформація:
Nameless (UA, Ternopil) і їх альбом Shos’ stalos’ u lisi… (2007) був записаний наприкінці 2006 року на київській студії Happy Records під керівництвом Дмитра Остроушка (гурт Щастя з Києва, Україна) та зведений у 2007 році чудовим звукорежисером Сергієм Товстолузьким, який став чи не останньою роботою у його значному життєвому доробку (вічна йому пам'ять).




Якщо Ви справді бажаєте підтримати українське - після прослуховування, якщо музика вам сподобалась, придбайте ліцензійний диск. Підтримаймо вітчизняних виконавців!


Срібний реліз (на рейтинг впливає 50% завантаженого)
 Трекер:    Зареєстрований   

Завантажити / скачати українську музику



відео для новачків



 Зареєстрований:   2013-02-21 23:33
 Розмір:   529 MB 
 Оцінка музики:   10/10 (Голосів: 4)
   
civ 
VIP


З нами з: 16.02.11
Востаннє: 02.12.16
Повідомлень: 428

2013-02-21 23:45  
Ну, якість диску трохи підкачала. Маємо, що маємо...
Oleksa9 
Поважний учасник


З нами з: 17.05.12
Востаннє: 03.12.16
Повідомлень: 225

2013-02-22 06:22  
"Шось сталось" - якість української теж....
sko4 
Поважний учасник


З нами з: 23.06.08
Востаннє: 30.11.16
Повідомлень: 181

2013-02-22 10:18  
Цитата:
якість української теж....

А Ви б хотіли, щоб альтернативний гурт з Західної України творив рафінованою книжною мовою. Wide grin Їхня мова саме така якою послуговуються в щоденному спілкуванні тернополяни

Oleksa9 
Поважний учасник


З нами з: 17.05.12
Востаннє: 03.12.16
Повідомлень: 225

2013-02-22 19:03  
Називати другу за милозвучністю мову у світі рафінованою це Confused
Михайло Хмара 
Новенький


З нами з: 13.10.16
Востаннє: 18.11.16
Повідомлень: 3

2016-10-15 11:20  
Роздайте хто може. Дякую
Ваш часовий пояс: GMT + 2 Години

Нова тема   Відповісти