Завантажити та скачати торренти українською


Суддя Дредд / Dredd (2012) AVC

Нові коментарі

Нова тема   Відповісти
Останній раз роздавалося V.i.R.u.S (2016-10-09)
Автор Повідомлення
Drool 
VIP


З нами з: 17.04.10
Востаннє: 08.12.16
Повідомлень: 1267

2013-02-20 23:57  
Суддя Дредд / Dredd (2012) AVC

Суддя Дредд / Dredd (2012) AVC


Жанр: фантастика, трилер, бойовик, кримінал
Країна: ПАР, Велика Британія



Кіностудія / кінокомпанія: DNA Films, IM Global, Reliance Big Entertainment
Режисер: Піт Трейвіс
Актори: Карл Урбан, Олівія Тірлбі, Ліна Хіді, Вуд Харріс, Рейчел Вуд, Анділ Мнґаді, Портес Ксандо Стінкамп, Джейсон Коуп, Емма Бреши, Рекі Айола

Сюжет:
У жорстокому, футуристичному місті за порядок відповідає Міністерство Юстиції, працівники якого, Судді, мають повноваження судді, присяжних та ката. Знаменитий Суддя Дредд разом із стажером потрапляє в лігво банди наркоторговців, які розповсюджують новий наркотик, що змінює реальність, Лета.


Тривалість: 01:35:51
Якість: AVC
Відео:
кодек:
розмір кадру: 1056x440
бітрейт: 2361 кб/с

Аудіо:
мова: українська
переклад: багатоголосий закадровий
кодек: 5.1
бітрейт: 448 кб/с
Скріншоти









Джерело: студія "Омікрон" на замовлення HURTOM.COM
Особиста оцінка: 8 - мені сподобалося
MediaInfo
General
Unique ID : 47375944763624636499198477406542940809 (0x23A4466AC03D6E44A89E920C965ACA89)
Complete name : /mnt/disk_d/Video/Films/Dredd.2012.Ukr.OMIKRON.AVC.mkv
Format : Matroska
File size : 1.88 GiB
Duration : 1h 35mn
Overall bit rate : 2 807 Kbps
Movie name : Суддя Дредд / Dredd (2012) AVC | video by -=POTROKS=-
Encoded date : UTC 2013-02-20 20:40:36
Writing application : mkvmerge v4.8.0 ('I Got The...') built on Aug 22 2011 13:16:28
Writing library : libebml v1.2.0 + libmatroska v1.1.0

Video
ID : 1
Format : AVC
Format/Info : Advanced Video Codec
Format profile : [email protected]
Format settings, CABAC : Yes
Format settings, ReFrames : 9 frames
Codec ID : V_MPEG4/ISO/AVC
Duration : 1h 35mn
Bit rate : 2 361 Kbps
Width : 1 056 pixels
Height : 440 pixels
Display aspect ratio : 2.40:1
Frame rate mode : Variable
Frame rate : 23.976 fps
Color space : YUV
Chroma subsampling : 4:2:0
Bit depth : 8 bits
Scan type : Progressive
Bits/(Pixel*Frame) : 0.212
Stream size : 1.54 GiB (82%)
Title : Суддя Дредд / Dredd (2012) AVC | video by -=POTROKS=-
Writing library : core 128 r2216M 198a7ea
Encoding settings : cabac=1 / ref=10 / deblock=1:-2:-1 / analyse=0x3:0x133 / me=umh / subme=11 / psy=1 / psy_rd=1.05:0.00 / mixed_ref=1 / me_range=48 / chroma_me=1 / trellis=2 / 8x8dct=1 / cqm=0 / deadzone=21,11 / fast_pskip=0 / chroma_qp_offset=-2 / threads=4 / lookahead_threads=1 / sliced_threads=0 / nr=0 / decimate=1 / interlaced=0 / bluray_compat=0 / constrained_intra=0 / bframes=12 / b_pyramid=1 / b_adapt=2 / b_bias=0 / direct=3 / weightb=1 / open_gop=0 / weightp=2 / keyint=240 / keyint_min=23 / scenecut=40 / intra_refresh=0 / rc_lookahead=150 / rc=2pass / mbtree=1 / bitrate=2361 / ratetol=1.0 / qcomp=0.70 / qpmin=0 / qpmax=66 / qpstep=4 / cplxblur=20.0 / qblur=0.5 / vbv_maxrate=20000 / vbv_bufsize=25000 / nal_hrd=none / ip_ratio=1.35 / aq=1:0.70

Audio
ID : 2
Format : AC-3
Format/Info : Audio Coding 3
Mode extension : CM (complete main)
Codec ID : A_AC3
Duration : 1h 35mn
Bit rate mode : Constant
Bit rate : 448 Kbps
Channel(s) : 6 channels
Channel positions : Front: L C R, Side: L R, LFE
Sampling rate : 48.0 KHz
Bit depth : 16 bits
Compression mode : Lossy
Stream size : 307 MiB (16%)
Title : Рідна мова | "Омікрон" на замовлення HURTOM.COM
Language : Ukrainian
Походження: відеоряд взято з ріпу від


Авторський реліз (завантажувати можна без реєстрації)
 Трекер:    Зареєстрований   

Завантажити / скачати фільм українською



відео для новачків



 Зареєстрований:   2013-02-20 23:57
 Розмір:   1.88 GB 
 Оцінка фільму:   8.7/10 (Голосів: 23)
   
Інші релізи
   Суддя Дредд / Dredd (2012) 2хUkr patriot2305  3 / 0   1.58 GB   2013-10-06 16:02 
   Суддя Дредд / Dredd (2012) Remux Ukr/Eng | sub Eng Omikron  0 / 0   26.92 GB   2013-01-24 13:14 
   Суддя Дредд / Dredd (2012) 1080p Ukr/Eng | sub Eng Omikron  3 / 0   13.96 GB   2013-01-22 21:48 
   Суддя Дредд / Dredd (2012) 720p Ukr/Eng | sub Eng Omikron  8 / 0   3.6 GB   2013-01-22 00:13 
Ваш часовий пояс: GMT + 2 Години

Нова тема   Відповісти