Завантажити та скачати торренти українською


DAT - Жало (2002) [FLAC] | Folk Rock / Alternative Rock

Нові коментарі

Нова тема   Відповісти
Автор Повідомлення
civ 
VIP


З нами з: 16.02.11
Востаннє: 10.12.16
Повідомлень: 429

2013-02-20 18:32  
DAT - Жало (2002) [FLAC] | Folk Rock / Alternative

DAT - Жало (2002) [FLAC] | Folk Rock / Alternative Rock


Стиль: Folk Rock / Alternative Rock
Країна, місто: Україна, Сміла
Сайти: Офіційний сайт
Видавець: Воля Музика
Виконавці:
Люда Орленко (Юра) - вокал, гітара, перкусія
Олег Яшник - гітара, бас-гатара, бек-вокал (2), програмування, труба
Олександр Осадчий - барабани, бек-вокал (2), програмування

Тексти: Люда Орленко (Юра)
Музика: Олег Яшник, Олександр Осадчий (2,3)
Саундпродюсер: Олег Яшник, Олександр Осадчий
Записано: Столиця звукозапис, 2000
Майстерінг: Віталій Телезін
Ремікси: ФДР Олександр Виховський (10), Сергій Товстолужський (11), DAT (12)

Пісні:
    01. Звільнилася
    02. Жало
    03. Сон денний
    04. Живи
    05. Dreams
    06. Косиця квітне
    07. Кінець світу
    08. Сама
    09. Не війна
    10. Живи rmx
    11. Жало rmx
    12. Dreams rmx

Тривалість: 00:49:24
Мова: українська
Аудіо-кодек: FLAC
Бітрейт: 991 кб/с
Джерело: власний ріп
Тип ріпу: image + cue + covers
EAC Log

Exact Audio Copy V1.0 beta 2 from 29. April 2011

EAC extraction logfile from 20. February 2013, 9:40

DAT / Жало

Used drive : Optiarc DVD RW AD-7200A Adapter: 0 ID: 0

Read mode : Secure
Utilize accurate stream : Yes
Defeat audio cache : Yes
Make use of C2 pointers : No

Read offset correction : 48
Overread into Lead-In and Lead-Out : No
Fill up missing offset samples with silence : Yes
Delete leading and trailing silent blocks : No
Null samples used in CRC calculations : Yes
Used interface : Native Win32 interface for Win NT & 2000

Used output format : Internal WAV Routines
Sample format : 44.100 Hz; 16 Bit; Stereo

TOC of the extracted CD

Track | Start | Length | Start sector | End sector
---------------------------------------------------------
1 | 0:00.00 | 3:36.71 | 0 | 16270
2 | 3:36.71 | 3:59.00 | 16271 | 34195
3 | 7:35.71 | 3:35.46 | 34196 | 50366
4 | 11:11.42 | 4:08.70 | 50367 | 69036
5 | 15:20.37 | 4:46.41 | 69037 | 90527
6 | 20:07.03 | 3:51.67 | 90528 | 107919
7 | 23:58.70 | 4:55.49 | 107920 | 130093
8 | 28:54.44 | 4:53.23 | 130094 | 152091
9 | 33:47.67 | 4:26.30 | 152092 | 172071
10 | 38:14.22 | 3:36.45 | 172072 | 188316
11 | 41:50.67 | 4:01.35 | 188317 | 206426
12 | 45:52.27 | 3:31.17 | 206427 | 222268

Range status and errors

Selected range

Filename D:\Music\DAT - Жало\DAT - Жало.wav

Peak level 100.0 %
Extraction speed 4.0 X
Range quality 100.0 %
Copy CRC 5557771E
Copy OK

No errors occurred

End of status report
Audiochecker

fooCDtect - foobar2000 + auCDtect, baralgin.

auCDtect: CD records authenticity detector, version 0.8.2
Copyright (c) 2004 Oleg Berngardt. All rights reserved.
Copyright (c) 2004 Alexander Djourik. All rights reserved.

mode: 0

=======================================================
Track: 01 - Звільнилася
Quality: CDDA, 100%
=======================================================
Track: 02 - Жало
Quality: CDDA, 100%
=======================================================
Track: 03 - Сон денний
Quality: CDDA, 100%
=======================================================
Track: 04 - Живи
Quality: CDDA, 100%
=======================================================
Track: 05 - Dreams
Quality: CDDA, 100%
=======================================================
Track: 06 - Косиця квітне
Quality: CDDA, 99%
=======================================================
Track: 07 - Кінець світу
Quality: CDDA, 100%
=======================================================
Track: 08 - Сама
Quality: CDDA, 99%
=======================================================
Track: 09 - Не війна
Quality: CDDA, 100%
=======================================================
Track: 10 - Живи rmx
Quality: CDDA, 100%
=======================================================
Track: 11 - Жало rmx
Quality: CDDA, 100%
=======================================================
Track: 12 - Dreams rmx
Quality: CDDA, 100%
=======================================================
Додаткова інформація:
Перевиданий іншим лейблом перший альбом гурту. Трек-лист відрізняється від попереднього видання.



Також на Толоці
DAT - Жало (2000) [MP3]
Ю.РА - Радіосни (2006) [MP3]
Ю.РА - Радіосни (2006) [FLAC]


Якщо Ви справді бажаєте підтримати українське - після прослуховування, якщо музика вам сподобалась, придбайте ліцензійний диск. Підтримаймо вітчизняних виконавців!


Срібний реліз (на рейтинг впливає 50% завантаженого)
 Трекер:    Зареєстрований   

Завантажити / скачати українську музику



відео для новачків



 Зареєстрований:   2013-02-20 18:32
 Розмір:   358 MB 
 Оцінка музики:   10/10 (Голосів: 6)
   
Krig 
Оцифрування книг Гуртом
Оцифрування книг Гуртом


З нами з: 02.02.12
Востаннє: 10.12.16
Повідомлень: 335

2013-02-20 19:22  
civ, дякую. Добре було б якби ви ще й в MP3 ріпнули, бо до цього на Толоці лише апконверт був...
civ 
VIP


З нами з: 16.02.11
Востаннє: 10.12.16
Повідомлень: 429

2013-02-20 22:49  
Я буду тільки обома руками "за", якщо це зробить хтось інший. Просто не хочу і не можу тримати на своєму комп’ютері зайвого.
dzhola 
Частий відвідувач


З нами з: 07.09.09
Востаннє: 10.12.16
Повідомлень: 41

2016-08-13 22:03  
На роздачу хтось стане? Happy

Ну будь-лааааааска Happy

ssTAss 
Модератор музики


З нами з: 05.07.08
Востаннє: 11.12.16
Повідомлень: 10958

2016-08-13 23:38  
став
вантажте

Додано через 1 хвилину 5 секунд:

але не впевнений, що зможете
через рейтинг
dzhola написано:
Рейтинг: 0.1

Oleksa9 
Поважний учасник


З нами з: 17.05.12
Востаннє: 11.12.16
Повідомлень: 225

2016-08-14 05:29  
dzhola написано:
будь-лааааааска

будь_ласка

Ваш часовий пояс: GMT + 2 Години

Нова тема   Відповісти