Завантажити та скачати торренти українською


Театр-студія «Не журись!» - Повіяв вітер степовий (2003) [FLAC] | Rock

Нові коментарі

Нова тема   Відповісти
Автор Повідомлення
civ 
VIP


З нами з: 16.02.11
Востаннє: 03.12.16
Повідомлень: 428

2013-02-20 18:16  
Театр-студія «Не журись!» - Повіяв вітер степовий (2003) [FLAC] | Rock

Театр-студія «Не журись!» - Повіяв вітер степовий (2003) [FLAC] | Rock


Стиль: Rock
Країна, місто: Україна, Львів
Видавець: Гал Рекордс
Виконавці:
Вокальна група: Леся Бонковська, Богдан Генгало, Василь Жданкін, Олег Лихач, Роман Микитюк, Віктор Морозов, Орест Хома
Акомпанує: Юрій Саєнко
Звукорежисери: Роман Лозинський, Володимир Критович
Художній керівник: Віктор Морозов
Редактор: Марта Кінасевич
Художник: В.Кауфман
Дизайн: І.Заяць
Пісні:
    01. Ой, у лузі червона калина
    02. Йде січове військо
    03. Ой, з-за гори чорна хмара
    04. Ой, впав стрілець…
    05. Питається вітер в смерти
    06. Чорна рілля ізорана
    07. Бо війна війною
    08. Пиймо, друзі
    09. Зелений дубочку
    10. Накрила нічка
    11. Ой, зацвіла черемха
    12. Заквітчали дівчатонька
    13. Зажурились галичанки
    14. Не сміє бути в нас страху
    15. Коли ми вмирали
    16. О, Україно
    17. Повіяв вітер степовий
    18. Стрілецькі могили
    19. Гімн «Ще не вмерла Україна»

Тривалість: 00:58:46
Мова: українська
Аудіо-кодек: FLAC
Бітрейт: 800 кб/с
Джерело: власний ріп
Тип ріпу: image + cue + covers
EAC Log

Exact Audio Copy V1.0 beta 2 from 29. April 2011

EAC extraction logfile from 20. February 2013, 9:24

Театр-студія «Не журись!» / Повіяв вітер степовий

Used drive : Optiarc DVD RW AD-7200A Adapter: 0 ID: 0

Read mode : Secure
Utilize accurate stream : Yes
Defeat audio cache : Yes
Make use of C2 pointers : No

Read offset correction : 48
Overread into Lead-In and Lead-Out : No
Fill up missing offset samples with silence : Yes
Delete leading and trailing silent blocks : No
Null samples used in CRC calculations : Yes
Used interface : Native Win32 interface for Win NT & 2000

Used output format : Internal WAV Routines
Sample format : 44.100 Hz; 16 Bit; Stereo

TOC of the extracted CD

Track | Start | Length | Start sector | End sector
---------------------------------------------------------
1 | 0:00.00 | 3:07.00 | 0 | 14024
2 | 3:07.00 | 1:54.00 | 14025 | 22574
3 | 5:01.00 | 1:41.00 | 22575 | 30149
4 | 6:42.00 | 2:58.00 | 30150 | 43499
5 | 9:40.00 | 5:10.00 | 43500 | 66749
6 | 14:50.00 | 3:10.00 | 66750 | 80999
7 | 18:00.00 | 3:33.00 | 81000 | 96974
8 | 21:33.00 | 3:37.00 | 96975 | 113249
9 | 25:10.00 | 3:46.00 | 113250 | 130199
10 | 28:56.00 | 3:12.00 | 130200 | 144599
11 | 32:08.00 | 3:35.45 | 144600 | 160769
12 | 35:43.45 | 3:18.60 | 160770 | 175679
13 | 39:02.30 | 1:42.11 | 175680 | 183340
14 | 40:44.41 | 2:31.47 | 183341 | 194712
15 | 43:16.13 | 3:01.00 | 194713 | 208287
16 | 46:17.13 | 2:46.25 | 208288 | 220762
17 | 49:03.38 | 3:16.53 | 220763 | 235515
18 | 52:20.16 | 4:39.00 | 235516 | 256440
19 | 56:59.16 | 1:46.68 | 256441 | 264458

Range status and errors

Selected range

Filename D:\Music\Театр-студія «Не журись!» - Повіяв вітер степовий\Театр-студія «Не журись!» - Повіяв вітер степовий.wav

Peak level 99.2 %
Extraction speed 4.1 X
Range quality 100.0 %
Copy CRC 77A6B23C
Copy OK

No errors occurred

End of status report
Audiochecker

fooCDtect - foobar2000 + auCDtect, baralgin.

auCDtect: CD records authenticity detector, version 0.8.2
Copyright (c) 2004 Oleg Berngardt. All rights reserved.
Copyright (c) 2004 Alexander Djourik. All rights reserved.

mode: 0

=======================================================
Track: 01 - Ой, у лузі червона калина
Quality: CDDA, 100%
=======================================================
Track: 02 - Йде січове військо
Quality: CDDA, 100%
=======================================================
Track: 03 - Ой, з-за гори чорна хмара
Quality: CDDA, 100%
=======================================================
Track: 04 - Ой, впав стрілець…
Quality: CDDA, 100%
=======================================================
Track: 05 - Питається вітер в смерти
Quality: CDDA, 100%
=======================================================
Track: 06 - Чорна рілля ізорана
Quality: CDDA, 100%
=======================================================
Track: 07 - Бо війна війною
Quality: CDDA, 100%
=======================================================
Track: 08 - Пиймо, друзі
Quality: CDDA, 100%
=======================================================
Track: 09 - Зелений дубочку
Quality: CDDA, 100%
=======================================================
Track: 10 - Накрила нічка
Quality: CDDA, 100%
=======================================================
Track: 11 - Ой, зацвіла черемха
Quality: CDDA, 100%
=======================================================
Track: 12 - Заквітчали дівчатонька
Quality: CDDA, 100%
=======================================================
Track: 13 - Зажурились галичанки
Quality: CDDA, 99%
=======================================================
Track: 14 - Не сміє бути в нас страху
Quality: CDDA, 100%
=======================================================
Track: 15 - Коли ми вмирали
Quality: CDDA, 99%
=======================================================
Track: 16 - О, Україно
Quality: CDDA, 100%
=======================================================
Track: 17 - Повіяв вітер степовий
Quality: CDDA, 100%
=======================================================
Track: 18 - Стрілецькі могили
Quality: CDDA, 100%
=======================================================
Track: 19 - Гімн «Ще не вмерла Україна»
Quality: CDDA, 100%
=======================================================
Додаткова інформація:
Перевиданий на компакт-диску відомий альбом.



Також на Толоці
Цей альбом у MP3
Касетна версія


Якщо Ви справді бажаєте підтримати українське - після прослуховування, якщо музика вам сподобалась, придбайте ліцензійний диск. Підтримаймо вітчизняних виконавців!


Срібний реліз (на рейтинг впливає 50% завантаженого)
 Трекер:    Зареєстрований   

Завантажити / скачати українську музику



відео для новачків



 Зареєстрований:   2013-02-20 18:17
 Розмір:   350 MB 
 Оцінка музики:   10/10 (Голосів: 4)
   
ssTAss 
Модератор музики


З нами з: 05.07.08
Востаннє: 03.12.16
Повідомлень: 10932

2013-02-20 23:33  
civ написано:
| Rock

хм, а тут би написав фольк рок

Ваш часовий пояс: GMT + 2 Години

Нова тема   Відповісти