Завантажити та скачати торренти українською


Казино Рояль / Casino Royale (2006) 1080p 3xUkr/Eng

Нові коментарі

Нова тема   Відповісти
Автор Повідомлення
Arsenfpu 
Відео Гуртом - фільмокрай
Відео Гуртом - фільмокрай


З нами з: 30.04.09
Востаннє: 09.12.16
Повідомлень: 1591

2013-02-18 00:28  
Казино Рояль / Casino Royale (2006) 1080p 3xUkr/Eng

Казино Рояль / Casino Royale (2006) 1080p 3xUkr/Eng


Жанр: пригодницький, детектив, екшн, бойовик
Країна: США



Кіностудія / кінокомпанія: Columbia Pictures, Eon Productions, Casino Royale Productions
Режисер: Мартін Кемпбелл
Актори: Деніел Крейг, Єва Грін, Медс Міккелсен, Джуді Денч, Джеффрі Райт, Джанкарло Джанніні, Тобіаш Мензес, Івана Міліцевич

Сюжет:
Нова місія Джеймса Бонда пов'язана з подорожжю на Мадагаскар, де він має вистежити терориста на ім'я Моллака. ЦРУ стає відомо, що банкір Ле Шиффр, який фінансує терористичні організації, планує виграти великі гроші у покер в казино Рояль у Чорногорії. Британська розвідка дає Бонду завдання виграти цю партію і знищити таким чином організацію Ле Шиффра.


Тривалість: 02:24:28
Якість:
Відео:
кодек:
розмір кадру: 1920 х800
бітрейт: 16.0 Mbps

Аудіо # 1:
мова: українська
переклад: професійний дубльований
кодек: 5.1
бітрейт: 384 кб/с
Джерело озвучення: Невафільм Україна

Аудіо # 2:
мова: українська
переклад: багатоголосий закадровий
кодек: 5.1
бітрейт: 384 кб/с
Джерело озвучення: Так Треба Продакшн для К1

Аудіо # 3:
мова: українська
переклад: професійний дубльований
кодек: 5.1
бітрейт: 384 кб/с
Джерело озвучення: Студія "Пілот" на замовлення телекомпанії ICTV

Аудіо # 4:
мова: англійська
переклад: оригінал
кодек: 5.1
бітрейт: 1 510 кб/с

Усі українські аудіо-доріжки було взято з цього релізу , тому висловлюю щиру дяку всім, хто був причетний до його створення!
MediaInfo
General
Format : Matroska
Format version : Version 2
File size : 19.2 GiB
Duration : 2h 24mn
Overall bit rate : 19.1 Mbps
Encoded date : UTC 2013-02-17 21:15:23
Writing application : mkvmerge v5.4.0 ('Piper') built on Mar 10 2012 13:34:39
Writing library : libebml v1.2.3 + libmatroska v1.3.0

Video
ID : 1
Format : AVC
Format/Info : Advanced Video Codec
Format profile : [email protected]
Format settings, CABAC : Yes
Format settings, ReFrames : 5 frames
Codec ID : V_MPEG4/ISO/AVC
Duration : 2h 24mn
Bit rate : 16.0 Mbps
Width : 1 920 pixels
Height : 800 pixels
Display aspect ratio : 2.40:1
Frame rate : 23.976 fps
Color space : YUV
Chroma subsampling : 4:2:0
Bit depth : 8 bits
Scan type : Progressive
Bits/(Pixel*Frame) : 0.435
Stream size : 16.2 GiB (84%)
Writing library : core 120 r2164 da19765
Encoding settings : cabac=1 / ref=5 / deblock=1:-2:-2 / analyse=0x3:0x133 / me=umh / subme=11 / psy=1 / psy_rd=1.10:0.00 / mixed_ref=1 / me_range=48 / chroma_me=1 / trellis=2 / 8x8dct=1 / cqm=0 / deadzone=21,11 / fast_pskip=0 / chroma_qp_offset=-3 / threads=12 / sliced_threads=0 / nr=0 / decimate=1 / interlaced=0 / bluray_compat=0 / constrained_intra=0 / bframes=7 / b_pyramid=2 / b_adapt=2 / b_bias=0 / direct=3 / weightb=1 / open_gop=0 / weightp=2 / keyint=250 / keyint_min=23 / scenecut=40 / intra_refresh=0 / rc_lookahead=60 / rc=crf / mbtree=1 / crf=16.9 / qcomp=0.65 / qpmin=0 / qpmax=69 / qpstep=4 / vbv_maxrate=50000 / vbv_bufsize=62500 / crf_max=0.0 / nal_hrd=none / ip_ratio=1.40 / aq=1:1.00
Language : English

Audio #1
ID : 2
Format : AC-3
Format/Info : Audio Coding 3
Mode extension : CM (complete main)
Codec ID : A_AC3
Duration : 2h 24mn
Bit rate mode : Constant
Bit rate : 384 Kbps
Channel(s) : 6 channels
Channel positions : Front: L C R, Side: L R, LFE
Sampling rate : 48.0 KHz
Bit depth : 16 bits
Compression mode : Lossy
Stream size : 397 MiB (2%)
Language : Ukrainian

Audio #2
ID : 3
Format : AC-3
Format/Info : Audio Coding 3
Mode extension : CM (complete main)
Codec ID : A_AC3
Duration : 2h 24mn
Bit rate mode : Constant
Bit rate : 384 Kbps
Channel(s) : 6 channels
Channel positions : Front: L C R, Side: L R, LFE
Sampling rate : 48.0 KHz
Bit depth : 16 bits
Compression mode : Lossy
Stream size : 397 MiB (2%)
Language : Ukrainian

Audio #3
ID : 4
Format : AC-3
Format/Info : Audio Coding 3
Mode extension : CM (complete main)
Codec ID : A_AC3
Duration : 2h 24mn
Bit rate mode : Constant
Bit rate : 384 Kbps
Channel(s) : 6 channels
Channel positions : Front: L C R, Side: L R, LFE
Sampling rate : 48.0 KHz
Bit depth : 16 bits
Compression mode : Lossy
Stream size : 397 MiB (2%)
Language : Ukrainian

Audio #4
ID : 5
Format :
Format/Info : Digital Theater Systems
Codec ID : A_DTS
Duration : 2h 24mn
Bit rate mode : Constant
Bit rate : 1 510 Kbps
Channel(s) : 6 channels
Channel positions : Front: L C R, Side: L R, LFE
Sampling rate : 48.0 KHz
Bit depth : 24 bits
Compression mode : Lossy
Stream size : 1.52 GiB (8%)
Title : | 5.1 ch | 48 kHz | 1536 kbps | 24 bit - Original
Language : English
Скріншоти


Джерело:
Особиста оцінка: 10 - без зайвих вагань рекомендую всім!


 Трекер:    Зареєстрований   

Завантажити / скачати фільм українською



відео для новачків



 Зареєстрований:   2013-02-18 00:28
 Розмір:   19.25 GB 
 Оцінка фільму:   7.7/10 (Голосів: 21)
   
Інші релізи
Killrocker 
Свій


З нами з: 04.08.10
Востаннє: 10.11.16
Повідомлень: 89

2013-02-18 01:48  
Реліз для колекціонерів
NeReVaR 
Відео Гуртом - підтримка та поширення
Відео Гуртом - підтримка та поширення


З нами з: 30.06.09
Востаннє: 30.11.16
Повідомлень: 492

2013-02-18 08:22  
Прекрасна робота.
igor911 
Відео Гуртом
Відео Гуртом


З нами з: 18.01.08
Востаннє: 09.12.16
Повідомлень: 5197

2013-02-18 21:09  
Killrocker написано:
Реліз для колекціонерів

Тут доріжка з дубляжем 384 kbps, а в мережі є на 448 kbps...

taurus 
Свій


З нами з: 04.04.11
Востаннє: 07.12.16
Повідомлень: 63

2013-05-06 09:21  
Повна версія - 2:24:34. А це якась проміжна між театральною і повною (якщо хронометраж виставлений правильно).
virtus8hur 
Попереджень: 1
Попереджень: 1 


З нами з: 06.02.10
Востаннє: 09.12.16
Повідомлень: 2965

2013-05-22 17:19  
Arsenfpu написано:
Актори: Деніел Крейг, єва Грін,


Може слово Єва слід писати з великої літери ?

Arsenfpu 
Відео Гуртом - фільмокрай
Відео Гуртом - фільмокрай


З нами з: 30.04.09
Востаннє: 09.12.16
Повідомлень: 1591

2013-05-24 15:08  
virtus8hur
Таки так Happy

Ваш часовий пояс: GMT + 2 Години

Нова тема   Відповісти