Завантажити та скачати торренти українською


Апокаліпсис наших днів / Apocalypse Now [Redux version] (1979) 720p Ukr/Eng | Sub Eng

Нові коментарі

Нова тема   Відповісти
Автор Повідомлення
leroykendall 
Модератор HD


З нами з: 03.01.11
Востаннє: 20.11.16
Повідомлень: 749

2013-02-17 21:12  
Апокаліпсис наших днів / Apocalypse Now [Redux version] (1979) 720p Ukr/Eng | Sub Eng

Апокаліпсис наших днів / Apocalypse Now [Redux version] (1979) 720p Ukr/Eng | Sub Eng

«The Horror. . . The Horror. . . »


Жанр: драма, воєнний
Країна: США


Топ 250 #35



Кіностудія / кінокомпанія: Zoetrope Studios
Режисер: Френсіс Форд Коппола (Francis Ford Coppola)
Актори: Марлон Брандо (Marlon Brando), Мартін Шин (Martin Sheen), Роберт Дюваль (Robert Duvall), Фредерік Форрест (Frederic Forrest), Сем Боттомс (Sam Bottoms), Лоуренс Фішберн (Laurence Fishburne), Альберт Холл (Albert Hall), Гаррісон Форд (Harrison Ford), Денніс Гоппер (Dennis Hopper), Джі. Ді Спрадлін (G.D. Spradlin), Джеррі Зісмер (Jerry Ziesmer), Скот Ґленн (Scott Glenn), Бо Біерс (Bo Byers), Джеймс Кене (James Keane), Керрі Розелл (Kerry Rossall)

Сюжет:
Капітан Віллард, фахівець з розслідування брудних справ, змучений віскі, спекою і виглядом з вікна готелю на проклятий Сайгон, відправляється крізь пекло В'єтнаму, по "річці часу" на пошуки полковника Курца, "зеленого берета", що відбився від зграї і проголосив себе богом камбоджійських дикунів.


Тривалість: 03:16:09
Якість: 720p
Відео:
кодек:
розмір кадру: 1280 х 544
бітрейт: 4168 кб/с

Аудіо # 1:
мова: українська
переклад: двоголосий закадровий
кодек: 2.0
бітрейт: 192 кб/с

Аудіо # 2:
мова: англійська
переклад: оригінал
кодек: 5.1
бітрейт: 1536 кб/с

Аудіо # 3:
мова: англійська
переклад: коментарі режисера Френсіса Форда Копполи
кодек: 2.0
бітрейт: 224 кб/с

Субтитри:
мова: англійська (повні, SDH)
тип: програмні (м'які)
формат: *.srt

Збережені оригінальні чаптери як на Blu-ray.


MediaInfo
Код:
General
Complete name                    : V:\Apocalypse Now [Redux version] (1979) [Ukr, Eng] 720p [Hurtom, HDClub] by leroykendall.mkv
Format                           : Matroska
File size                        : 8.52 GiB
Duration                         : 3h 16mn
Overall bit rate                 : 6 218 Kbps
Movie name                       : Apocalypse Now [Redux version] (1979) [Ukr, Eng] 720p [Hurtom, HDClub] by leroykendall
Encoded date                     : UTC 2013-02-17 16:27:36
Writing application              : mkvmerge v4.9.1 ('Ich will') зібрано Jul 11 2011 23:53:15
Writing library                  : libebml v1.2.1 + libmatroska v1.1.1

Video
ID                               : 1
Format                           : AVC
Format/Info                      : Advanced Video Codec
Format profile                   : [email protected]
Format settings, CABAC           : Yes
Format settings, ReFrames        : 11 frames
Muxing mode                      : Container [email protected]
Codec ID                         : V_MPEG4/ISO/AVC
Duration                         : 3h 15mn
Bit rate                         : 4 168 Kbps
Nominal bit rate                 : 4 290 Kbps
Width                            : 1 280 pixels
Height                           : 544 pixels
Display aspect ratio             : 2.35:1
Frame rate                       : 23.976 fps
Resolution                       : 24 bits
Colorimetry                      : 4:2:0
Scan type                        : Progressive
Bits/(Pixel*Frame)               : 0.250
Stream size                      : 5.71 GiB (67%)
Title                            : Apocalypse Now [Redux version] (1979) 720p
Writing library                  : core 106 r1732 b20059a
Encoding settings                : cabac=1 / ref=11 / deblock=1:-3:-3 / analyse=0x3:0x113 / me=umh / subme=10 / psy=1 / psy_rd=1.00:0.00 / mixed_ref=1 / me_range=32 / chroma_me=1 / trellis=2 / 8x8dct=1 / cqm=0 / deadzone=21,11 / fast_pskip=0 / chroma_qp_offset=-2 / threads=6 / sliced_threads=0 / nr=0 / decimate=0 / interlaced=0 / constrained_intra=0 / bframes=12 / b_pyramid=2 / b_adapt=2 / b_bias=0 / direct=3 / weightb=1 / open_gop=0 / weightp=2 / keyint=250 / keyint_min=23 / scenecut=40 / intra_refresh=0 / rc=2pass / mbtree=0 / bitrate=4290 / ratetol=1.0 / qcomp=0.60 / qpmin=10 / qpmax=51 / qpstep=4 / cplxblur=20.0 / qblur=0.5 / ip_ratio=1.40 / pb_ratio=1.30 / aq=1:0.50

Audio #1
ID                               : 2
Format                           : AC-3
Format/Info                      : Audio Coding 3
Codec ID                         : A_AC3
Duration                         : 3h 16mn
Bit rate mode                    : Constant
Bit rate                         : 192 Kbps
Channel(s)                       : 2 channels
Channel positions                : L R
Sampling rate                    : 48.0 KHz
Stream size                      : 269 MiB (3%)
Title                            : 2.0 @ 192 kbps - Закадровий 1+1
Language                         : Ukrainian

Audio #2
ID                               : 3
Format                           :
Format/Info                      : Digital Theater Systems
Codec ID                         : A_DTS
Duration                         : 3h 16mn
Bit rate mode                    : Constant
Bit rate                         : 1 510 Kbps
Channel(s)                       : 6 channels
Channel positions                : Front: L C R, Surround: L R, LFE
Sampling rate                    : 48.0 KHz
Resolution                       : 24 bits
Stream size                      : 2.07 GiB (24%)
Title                            : 5.1 @ 1536 kbps

Audio #3
ID                               : 4
Format                           : AC-3
Format/Info                      : Audio Coding 3
Format profile                   : Dolby Digital
Codec ID                         : A_AC3
Duration                         : 3h 16mn
Bit rate mode                    : Constant
Bit rate                         : 224 Kbps
Channel(s)                       : 2 channels
Channel positions                : L R
Sampling rate                    : 48.0 KHz
Stream size                      : 314 MiB (4%)
Title                            : 2.0 @ 224 kbps - Director's Commentary

Text #1
ID                               : 5
Format                           : UTF-8
Codec ID                         : S_TEXT/UTF8
Codec ID/Info                    : UTF-8 Plain Text

Text #2
ID                               : 6
Format                           : UTF-8
Codec ID                         : S_TEXT/UTF8
Codec ID/Info                    : UTF-8 Plain Text
Title                            : SDH

Menu
00:00:00.000                     : en:1. Waiting in Saigon
00:09:25.273                     : en:2. Intelligence Compound
00:20:24.432                     : en:3. Willard Meets PBR Crew
00:24:10.866                     : en:4. Search and Destroy
00:31:15.123                     : en:5. Beach Party
00:34:11.383                     : en:6. Helicopter Attack
00:45:03.034                     : en:7. Col. Kilgore Goes Surfing
00:52:05.664                     : en:8. The Tiger in the Jungle
01:03:27.762                     : en:9. Entertaining the Boys
01:17:10.751                     : en:10. Kurtz Dossier
01:34:19.404                     : en:11. Sampan Massacre
01:39:37.763                     : en:12. Do Lung Bridge
01:49:20.721                     : en:13. Mr. Clean's Death
01:55:02.771                     : en:14. Arrow Attack
02:27:41.102                     : en:15. Kurtz Compound
02:36:25.668                     : en:16. Interrogation
02:45:19.868                     : en:17. Chef Decapitated
03:03:10.563                     : en:18. Caribou Sacrifice
03:10:11.025                     : en:19. Ending


Скріншоти:



Подяки
Tanat13 за сирий звук
karvai0 за синхронізацію звуку
thefir за українізований постер



Джерело: &


Срібний реліз (на рейтинг впливає 50% завантаженого)
 Трекер:    Зареєстрований   

Завантажити / скачати фільм українською



відео для новачків



 Зареєстрований:   2013-02-17 21:12
 Розмір:   8.52 GB 
 Оцінка фільму:   9.8/10 (Голосів: 33)
   
Дід Панас 
Новенький


З нами з: 07.06.09
Востаннє: 21.09.16
Повідомлень: 4

2013-02-18 14:06  
Величезне ДЯКУЮ за реліз!!! Як на мене - це один з кращих фільмів за всю історію кіномистецтва! Раджу дивитися і ДУМАТИ
leroykendall 
Модератор HD


З нами з: 03.01.11
Востаннє: 20.11.16
Повідомлень: 749

2013-02-18 15:02  
Дід Панас написано:
Величезне ДЯКУЮ за реліз!!!

Будь ласка. Фільм - дійсно дуже класний.

Ваш часовий пояс: GMT + 2 Години

Нова тема   Відповісти