Завантажити та скачати торренти українською


Напролом / Lockout [UNRATED] (2012) AVC Ukr/Eng | sub Ukr/Eng

Нові коментарі

Нова тема   Відповісти
Автор Повідомлення
Anonymous 







2013-02-16 17:08  
Напролом / Lockout [UNRATED] (2012) AVC Ukr/Eng | sub Ukr/Eng


Жанр: бойовик, фантастика, екшн, комедія, пригодницький
Країна: Франція



Кіностудія / кінокомпанія: Europa Corp, Digital Factory
Режисер: Джеймс Метер
Актори: Гай Пірс, Ленні Джеймс, Петер Стормаре та інші.

Сюжет:
Орбітальна станція MS1 - найбільша космічна в'язниця, де в анабіозі містяться багато тисяч найнебезпечніших злочинців: грабіжників, гвалтівників, вбивць. Ходять чутки, що над зануреними в штучний сон в'язнями проводяться протизаконні експерименти. З розслідуванням на станцію відправлена ​​комісія на чолі з Емілі Уорнок, дочкою президента США. Несподівано ситуація виходить з-під контролю, і вся станція опиняється захоплена злочинцями. Спецагент Меріон Сноу, несправедливо звинувачений у державній зраді, отримує завдання проникнути в найнеприступнішу в'язницю у Всесвіті і врятувати Емілі. Це його єдиний шанс повернути собі добре ім'я і отримати свободу.


Тривалість: 01:35:19
Якість:
Відео:
кодек:
розмір кадру: 1032 x 432
бітрейт: 1801 кб/с

Аудіо # 1:
мова: українська
переклад: професійний дубльований
кодек: 2.0
бітрейт: 192 кб/с

Аудіо # 2:
мова: англійська
переклад: оригінал
кодек: 5.1
бітрейт: 448 кб/с

Джерело озвучення:


Субтитри:
мова: українська
тип: програмні (м'які)
формат: *.srt

Субтитри:
мова: англійська
тип: програмні (м'які)
формат: *.srt

Скріншоти





Подяка пану sando7 за наданий запис!
Джерело: &
Особиста оцінка: 10 - без зайвих вагань рекомендую всім!


 Трекер:    Зареєстрований   

Завантажити / скачати фільм українською



відео для новачків



 Зареєстрований:   2013-02-16 17:08
 Розмір:   1.63 GB 
 Оцінка фільму:   8.3/10 (Голосів: 30)
   
wandering 
Новенький


З нами з: 10.02.12
Востаннє: 03.12.16
Повідомлень: 1

2013-02-17 08:07  
Фільм 2011 року.
leroykendall 
Модератор HD


З нами з: 03.01.11
Востаннє: 20.11.16
Повідомлень: 749

2013-02-17 09:42  
wandering
Правила толоки: рік той самий що на IMDB. А там - 2012.

seroga13 
VIP


З нами з: 22.06.09
Востаннє: 08.12.16
Повідомлень: 257

2013-02-17 10:16  
Хороший фільм!
petrogeo 
Новенький


З нами з: 02.07.11
Востаннє: 07.12.16
Повідомлень: 21

2013-02-18 09:08  
А 720p зробить хтось? Дякую.
Sando7 
Відео Гуртом - запис з ТБ
Відео Гуртом - запис з ТБ


З нами з: 04.05.09
Востаннє: 07.12.16
Повідомлень: 840

2013-02-18 14:53  
petrogeo написано:
А 720p зробить хтось? Дякую.

в мене є 1080р
MediaInfo
General
Unique ID : 195445010578589303962361016445331261967 (0x930956FF748E796C9FFB8FD098334A0F)
Complete name : D:\Naprolom.UKR.2012.D..1080p.mkv
Format : Matroska
Format version : Version 1
File size : 7.79 GiB
Duration : 1h 35mn
Overall bit rate : 11.7 Mbps
Encoded date : UTC 2013-02-16 17:09:53
Writing application : mkvmerge v2.4.1 ('Use Me') built on Dec 5 2008 18:30:05
Writing library : libebml v0.7.7 + libmatroska v0.8.1

Video
ID : 1
Format : AVC
Format/Info : Advanced Video Codec
Format profile : [email protected]
Format settings, CABAC : Yes
Format settings, ReFrames : 5 frames
Codec ID : V_MPEG4/ISO/AVC
Duration : 1h 35mn
Bit rate : 11.5 Mbps
Width : 1 920 pixels
Height : 804 pixels
Display aspect ratio : 2.40:1
Frame rate mode : Constant
Frame rate : 23.976 fps
Color space : YUV
Chroma subsampling : 4:2:0
Bit depth : 8 bits
Scan type : Progressive
Bits/(Pixel*Frame) : 0.311
Stream size : 7.50 GiB (96%)
Writing library : core 125 r2200 999b753
Encoding settings : cabac=1 / ref=5 / deblock=1:-3:-3 / analyse=0x3:0x113 / me=umh / subme=11 / psy=1 / psy_rd=1.50:0.00 / mixed_ref=1 / me_range=48 / chroma_me=1 / trellis=2 / 8x8dct=1 / cqm=0 / deadzone=21,11 / fast_pskip=0 / chroma_qp_offset=-2 / threads=18 / lookahead_threads=3 / sliced_threads=0 / nr=0 / decimate=0 / interlaced=0 / bluray_compat=0 / constrained_intra=0 / bframes=8 / b_pyramid=2 / b_adapt=2 / b_bias=0 / direct=3 / weightb=1 / open_gop=0 / weightp=2 / keyint=240 / keyint_min=24 / scenecut=40 / intra_refresh=0 / rc_lookahead=120 / rc=2pass / mbtree=1 / bitrate=11500 / ratetol=1.0 / qcomp=0.65 / qpmin=0 / qpmax=69 / qpstep=4 / cplxblur=20.0 / qblur=0.5 / ip_ratio=1.40 / aq=1:1.05
Language : English
Default : Yes
Forced : No

Audio
ID : 2
Format : AC-3
Format/Info : Audio Coding 3
Mode extension : CM (complete main)
Format settings, Endianness : Big
Codec ID : A_AC3
Duration : 1h 35mn
Bit rate mode : Constant
Bit rate : 192 Kbps
Channel(s) : 2 channels
Channel positions : Front: L R
Sampling rate : 48.0 KHz
Bit depth : 16 bits
Compression mode : Lossy
Stream size : 131 MiB (2%)
Default : Yes
Forced : No

Menu
00:00:00.000 : en:00:00:00.000
00:05:26.201 : en:00:05:26.201
00:10:16.991 : en:00:10:16.991
00:15:19.919 : en:00:15:19.919
00:22:28.973 : en:00:22:28.973
00:29:18.090 : en:00:29:18.090
00:35:32.839 : en:00:35:32.839
00:40:14.662 : en:00:40:14.662
00:45:55.920 : en:00:45:55.920
00:50:47.962 : en:00:50:47.962
00:55:28.575 : en:00:55:28.575
01:00:47.727 : en:01:00:47.727
01:05:55.869 : en:01:05:55.869
01:12:04.779 : en:01:12:04.779
01:17:49.290 : en:01:17:49.290
01:22:34.950 : en:01:22:34.950
анг доріжку можу в дтс або ас 3 448кб

підійде ? чи тре лише 720р

petrogeo 
Новенький


З нами з: 02.07.11
Востаннє: 07.12.16
Повідомлень: 21

2013-02-18 17:05  
Розмір файлу великий якби до 7 GB, а то на флешку непоміститься.
somnambula 
Відео Гуртом - дизайнер
Відео Гуртом - дизайнер


З нами з: 06.11.09
Востаннє: 07.12.16
Повідомлень: 760

2013-02-18 22:47  
Деякі жарти смішні, а так, то фільм десь на 3 з 10-ти.
Антагоніст гарно промальований, але не було його останнього епічного "ай", коли підривали станцію.

wolverine 
VIP


З нами з: 26.09.09
Востаннє: 07.12.16
Повідомлень: 320

2013-02-21 19:29  
а україномовну доріжку можна в АС3 5.1? був би вельми Вам вдячним )
ihor25 
Новенький


З нами з: 02.02.11
Востаннє: 07.07.16
Повідомлень: 10

2013-03-17 14:00  
6/10
Mafiozi_ 
Новенький


З нами з: 05.07.12
Востаннє: 16.11.16
Повідомлень: 8

2013-05-31 01:34  
Гай Пірс - чудовий актор.
Фільм - чудова комедія.

Nebiros 
Новенький


З нами з: 25.10.09
Востаннє: 07.12.16
Повідомлень: 4

2013-05-31 19:11  
Фільм на 3/10. Дуже не правдоподібно, особливу вбив епізод з падінням у скафандрах. По якості специфектів фільм на рівні 2004 року. А по продумці специфектів десь на 90-ті роки. Дуже розчарований у Безсоні
Ваш часовий пояс: GMT + 2 Години

Нова тема   Відповісти